开启辅助访问
 找回密码
 立即注册

征服14座高峰:凡事皆可能 4k.14.Peaks.Nothing.Is.Impossible.2021.2160p.NF.WEB-DL.x265.10bit.SDR.DDP5.1.Atmos-4k纪录片

#4k记录视频#时间:2023-04-28 阅读:318 回复:0

+ N4 i  R! V/ O0 C3 g 092029u9u0ee3ex8069xs3.jpg.jpg " O2 @. d" n6 h! [

. J4 g( X' E$ D4 u/ `9 _( W& [' V" F. F6 R! s
简       介

1 F4 s9 q, O4 ~% D$ _- i* g
, }4 k& I% g3 r- H  《征服 14 座高峰:凡事皆可能》透过尼玛尔·普贾(“尼姆斯”)的视角,探索了尼泊尔与高海拔登山的不解之缘,尼玛尔·普贾是一位无所畏惧、热爱玩乐的尼泊尔登山者,他正在执行一项他称之为“可能性计划”的任务:在 7 个月内登顶世界上 14 座海拔 8000 米的山峰,而此前的最短纪录是 7 年。他与一群技术娴熟的夏尔巴人一起穿越了珠穆朗玛峰、乔戈里峰和其他标志性山峰,经历了极端天气、生死抉择,以及家中母亲病倒的变故。《征服 14 座高峰:凡事皆可能》是一个关于勇气、毅力和挑战人类耐力极限的惊险故事。托奎尔·琼斯担任编剧、导演和制片人。金国威和伊丽莎白·柴·瓦沙瑞莉共同担任监制。该片由 Noah Media Group 和 Little Monster Films 联合制作。# D* r  c3 {" f1 d% W. v9 [9 C* ^

% F& c6 p& |: X# N
影片参数
征服14座高峰:凡事皆可能4k.14.Peaks.Nothing.Is.Impossible.2021.2160p.NF.WEB-DL.x265.10bit.SDR.DDP5.1.Atmos-4k纪录片信息0 @8 O# ?# B5 D$ [: T1 u6 G
Video8 k" N) U/ P/ p4 R* `6 D3 t
ID : 1
7 A, U7 P3 d) e& AFormat : HEVC
6 W/ t5 N: k5 T2 s9 p7 z) LFormat/Info : High Efficiency Video Coding
& o2 `4 S4 D  L, EFormat profile : Main 10@L5@Main
8 s. X! ^" j6 }* J( hCodec ID : V_MPEGH/ISO/HEVC! j9 r8 h" w& F# L5 M! X' r/ @& o" J+ E
Duration : 1 h 41 min% R' h6 G+ l4 ^- n* s: q+ j
Bit rate : 11.5 Mb/s8 r8 g6 F% G$ C, |  x* ]
Width : 3 840 pixels
. n* B6 ]4 M2 N: [. n) H' f8 mHeight : 2 160 pixels
: e0 Q) n4 d# ]$ U2 c+ d* F, vDisplay aspect ratio : 16:9
6 l' O; h+ K: S& t4 m2 Y& YFrame rate mode : Constant# N& l: `8 w2 p' d9 A* s5 W# g
Frame rate : 25.000 FPS
4 r' ]; [! h& j+ dColor space : YUV: H2 T6 v0 T- B) T
Chroma subsampling : 4:2:0$ K4 S* ?. [  X, T
Bit depth : 10 bits
. {* {1 t: f* ]  f% ^/ cBits/(Pixel*Frame) : 0.056
5 B5 n: ~4 B% {; a: t. |" n# DStream size : 8.12 GiB (94%)
* r+ v( X& O- E! K  \. _Language : English
% _3 x5 J6 C5 ?$ b+ jDefault : Yes! ^) T' x6 r  u0 S0 G* J& r. J
Forced : No7 Y2 b. p3 Q* r2 l
Color range : Limited- Q# Q8 N+ O  _# _* j( h4 X
Color primaries : BT.7097 C. L; n$ T7 {& H* T3 o
Transfer characteristics : BT.709
5 {8 @$ `! k( p6 V. qMatrix coefficients : BT.709/ r/ h0 q/ {$ C) z7 ?2 \3 G
+ G8 e  Y& c1 B  O

  s: I* @: e0 TAudio( q' x& S3 G3 e/ m
ID : 2
9 V  N; Y. T1 B" u, xFormat : E-AC-3 JOC
' ^: D$ s6 L2 p9 qFormat/Info : Enhanced AC-3 with Joint Object Coding, @' f5 ?# X" o! L- g
Commercial name : Dolby Digital Plus with Dolby Atmos
+ V4 z& X" D! G# i/ g) |Codec ID : A_EAC3  I+ n# q( {3 ]4 r! a
Duration : 1 h 41 min
" G5 U4 B* u3 M# D  W% k. IBit rate mode : Constant
) ]0 V; L+ N7 ]' |9 QBit rate : 768 kb/s
  e1 x5 s& {2 G# g  ~* o9 o3 CChannel(s) : 6 channels8 m& Q/ j0 q5 D7 |$ n0 C
Channel layout : L R C LFE Ls Rs  x; A- _' z6 u9 r; `: O
Sampling rate : 48.0 kHz
6 L. Z/ G5 O, M# u; ~# @Frame rate : 31.250 FPS (1536 SPF)
* n5 h+ C; V% mCompression mode : Lossy$ ]  J5 L# I5 m& ^0 R7 n% S
Stream size : 555 MiB (6%); p2 m) t2 y) N
Language : English" }* j# `, {$ ~0 W- L# }! P
Service kind : Complete Main2 D4 a( ]7 d9 }3 L( h/ Y" ]
Default : Yes
$ H$ e- m$ g' l5 d6 }7 ?& e9 O+ S. AForced : No* v+ b* A2 O) I3 |3 A( U
Complexity index : 16
9 Y$ V2 I7 u, ]& q. \Number of dynamic objects : 15
  |+ q! i* l! W" I4 E; U- PBed channel count : 1 channel
" t0 z! v" z6 M. y' @Bed channel configuration : LFE
' d8 @/ g$ B2 _4 Z  J$ O4 Y" T3 O' Z. P# C

! d) b  h3 _: R1 @( F" uText #1; m% p- R. A$ I$ M8 R: ^; g4 n
ID : 3
9 L1 ], N& A! l" k0 k, J" l8 aFormat : UTF-8
3 D" S( `3 {0 g& P5 M9 B/ kCodec ID : S_TEXT/UTF8
0 ^  X( w0 Q. n8 x, `. u. e/ ]Codec ID/Info : UTF-8 Plain Text
5 K! ^4 _- ?1 {Duration : 1 h 34 min7 u( t& k; Q. e& K
Bit rate : 11 b/s
) E7 p( R/ Q% KFrame rate : 0.035 FPS- X2 {# S- D, Y5 k
Count of elements : 201
) `; P7 L7 a9 Y, c3 K! FStream size : 8.27 KiB (0%)
! n( A: `% v7 f/ H# _; \( rTitle : Forced; f0 V" F: X2 w1 x& T+ d7 y! w
Language : English$ ~& H7 ~! P& s, ^# N# h: M5 X
Default : Yes
; k0 x  V! R$ \* l" |9 VForced : Yes( U- G# ~- _" k4 P
8 S* c9 h4 }  x6 U& a) Y

: ^7 J! R6 `4 l2 F# R4 \Text #2
0 B  u: {1 h$ d# FID : 4; s. t$ D* b5 v( l0 c
Format : UTF-87 @( f( e' u& {# t' @
Codec ID : S_TEXT/UTF8: B0 S+ ]4 d5 W/ I' v7 v. L$ [
Codec ID/Info : UTF-8 Plain Text
2 {1 r- B5 u% G4 r0 U! h( uDuration : 1 h 36 min8 R6 }2 Y4 I4 p8 }
Bit rate : 61 b/s
( r. ]+ z  M( r( p& Y# pFrame rate : 0.171 FPS
6 x$ q4 R2 c. z2 ^* CCount of elements : 991
/ s% e; C& }( [7 TStream size : 43.6 KiB (0%)5 M9 Q6 G1 k  v2 _6 E
Language : English
- F  s8 R, M( R, i* EDefault : No
  x/ _7 C4 M2 v, @* S: v' pForced : No
! n$ X8 e, }/ _9 ?2 C3 [, E. S' m& ?
7 u* s! ~3 [( z8 `9 G1 P

& f6 N% ~0 q) m* T; z- y, IText #3
. }* Q: [2 G& L4 p  |ID : 5
2 n) i& `* ]0 W  @) cFormat : UTF-8
- Z$ o9 p4 W+ e( p6 [+ sCodec ID : S_TEXT/UTF8
+ a# P* m# Z" m) _Codec ID/Info : UTF-8 Plain Text7 t- ^0 Q) T- l
Duration : 1 h 38 min2 H) J  e# F- Q5 w7 f$ y: P
Bit rate : 69 b/s$ s$ v* M* R* J" v) }
Frame rate : 0.202 FPS% {7 i1 Z/ |* t
Count of elements : 1186% o" Q/ H7 J8 q$ M' r( ~
Stream size : 50.0 KiB (0%)
6 J* ]8 |9 M: c; q. `Title : SDH
. }( \" e/ U6 E. P+ ^Language : English" P# _3 e% q5 C' N: K" V1 u9 J* r
Default : No
6 `! e- U& k# _5 f+ oForced : No
! \. Z* |# A2 b0 M8 D1 h, W
$ e0 Y( N$ f: _: x+ I5 M

0 v( ]2 Z8 k8 v4 N0 R" g& kText #4- H3 g. R% ^. P# B
ID : 6' v9 O6 Q! w* u% _4 F
Format : UTF-82 a5 j# B$ o! l5 u
Codec ID : S_TEXT/UTF8
# V) a8 F$ S4 _( B4 FCodec ID/Info : UTF-8 Plain Text0 a  }5 Y' Q7 h- Q1 c
Duration : 1 h 39 min) S" y  d6 v3 e" d5 G3 S; ~2 D
Bit rate : 96 b/s
' Z; l# f( a9 A# XFrame rate : 0.189 FPS( R! g0 c8 `; y' B) Z6 ^5 K. x
Count of elements : 1124
9 X% _4 m( w: n+ P% ?. @$ ~6 X0 _' hStream size : 70.0 KiB (0%)
1 A' g9 @- V, ^) p2 k6 E% nLanguage : Arabic2 G+ O* n  b, j) F+ B; J
Default : No
8 I; C6 f! Q  \3 B6 M  cForced : No
7 w3 d( }7 }1 u5 Q6 n4 X" v) C: ?4 Z. }6 n0 k) {, f' B# J
# M0 S2 N! g' R9 t
Text #5
3 w" ]) F: o9 ^; NID : 76 k) L( b- f0 r- c% J- G3 F9 v
Format : UTF-8
2 h+ w3 x: x9 \; E/ uCodec ID : S_TEXT/UTF8
+ e0 V* N" b8 d" D& cCodec ID/Info : UTF-8 Plain Text/ Y* g% B5 n# g* o7 Y: J& p0 D+ c+ D
Duration : 1 h 39 min5 C: f3 b* b; B' c8 j; P: Y
Bit rate : 56 b/s
; g- [# T1 i# U; R  s) W. XFrame rate : 0.183 FPS, q  `1 I, h" @( h7 x0 }5 c
Count of elements : 1089
$ [  u2 _  M5 v: ~3 I, E3 S' N1 AStream size : 41.3 KiB (0%)% X2 M+ a5 ^& o: S" ?* v
Language : Czech
( t5 Z% \% Z2 P3 Y% y0 GDefault : No
9 ]" I3 V, z3 b; Q0 OForced : No
+ C: K: w: Q) o4 ^. d8 u- m6 F* Q4 m& ^

0 {, L7 l4 X6 q2 s3 OText #68 t! T) B9 E. m4 H0 F! ^
ID : 80 s* l: D0 N: g. H: _% y5 ?' n9 y! [
Format : UTF-8
: r/ T; w. o& I) C. \Codec ID : S_TEXT/UTF8
3 Z' ^: R8 o. K+ PCodec ID/Info : UTF-8 Plain Text
9 n8 u6 H0 j6 yDuration : 1 h 39 min
3 \8 J2 y' P6 {; c5 jBit rate : 57 b/s3 f! d% ^; n2 M
Frame rate : 0.170 FPS
5 e1 r  i& c; x" v/ s$ oCount of elements : 1012
+ p3 X- y. }5 V8 m! M4 B3 dStream size : 42.0 KiB (0%)
! U& e8 X+ @9 D+ S4 I2 M6 X% F, fLanguage : Danish
9 a4 ~: Z8 ^4 G: q: ]Default : No
- r4 Q: O1 Y, s0 V- cForced : No
8 U; ~( I! F3 C3 d* ]! J
$ c9 T3 y7 b: ]$ W3 ~
, H9 B5 E! Y  P# w/ A8 Q
Text #7& `2 H: i: G. F6 V/ e
ID : 9
& J- S  C8 F6 P4 {% s( Z8 m' PFormat : UTF-8
( E; g, o3 B0 n& j. K& QCodec ID : S_TEXT/UTF8+ I* h3 {' P9 R! n& @. N
Codec ID/Info : UTF-8 Plain Text$ e$ l- f, C' m
Duration : 1 h 39 min( v1 ?% L" p7 N6 k
Bit rate : 60 b/s7 t# q! |6 M$ b5 ~  g8 C
Frame rate : 0.179 FPS/ P+ U4 H* A+ u# n
Count of elements : 1064+ @# b, U8 z* `
Stream size : 43.9 KiB (0%)
5 c7 J- k* P$ }1 S6 e* T0 Q4 \$ DLanguage : German
; S7 U4 S% O+ o1 |. yDefault : No1 V2 j* l: r# f
Forced : No
! ^. O2 e$ S: N+ {' ]
; o7 {3 t: t+ l5 ?, S

. k$ ]$ E0 c- `5 F1 q' jText #8
) [5 A: m7 i$ U) X7 j9 CID : 10
' }2 n- @2 h5 nFormat : UTF-8( u: J7 x2 K; ~4 M  E  B3 O- y
Codec ID : S_TEXT/UTF8/ k$ p5 [' v: i7 x  Z
Codec ID/Info : UTF-8 Plain Text
' l8 I! p. n( k6 _" I" [Duration : 1 h 39 min- Y7 g) _* U; F" [( c
Bit rate : 98 b/s
, W( v+ Y* A6 ~6 RFrame rate : 0.188 FPS7 H. ~( X! s$ O3 B$ H$ d
Count of elements : 1122  S* v' E" ?4 a1 B) h; ]+ I
Stream size : 71.8 KiB (0%)# ~4 X  d3 ]! m1 X% s
Language : Greek8 S" `' p8 f$ z) L1 T) R" a. j
Default : No' z* b( |- u% ^3 A/ S4 y7 H
Forced : No% ?5 F( U  T, A/ _  _  X

, p, _' g7 @9 |. y( k0 k2 V

  K" A, h& o/ S' w/ _' e1 BText #9
% \4 `: m' `3 ~5 I+ X% VID : 11( ^* \/ o3 H" }2 q. f
Format : UTF-8
( r. o. k# G: p0 E- W- w; l% c) tCodec ID : S_TEXT/UTF81 c" I- g# t. J& y
Codec ID/Info : UTF-8 Plain Text" u: P! z2 p0 K0 ?0 D. D' @0 L" \/ S
Duration : 1 h 39 min
  I+ k, _6 K( y: c; yBit rate : 57 b/s; Y, w4 X  z$ R9 u8 Z; E2 H
Frame rate : 0.183 FPS; @- l  P  b7 P) P2 m* M; c2 p
Count of elements : 10887 B3 }& Z6 {! Y; t& A- m; q
Stream size : 42.0 KiB (0%)
1 X- t: H3 |  d" t6 g0 ~Title : Latin American5 i$ I7 W$ ]0 E% d
Language : Spanish* W" _8 n4 l/ k: x( g8 g( j" p* @" o
Default : No& w: p1 x. T8 ?2 T  w) v. y
Forced : No% j  B6 C6 w) I9 V: A7 c9 H
; x/ c/ ^3 y0 i7 I' c/ R
7 t) r: {& }6 f1 h
Text #10
9 }3 ]) M/ z  `) QID : 12
$ e8 G" I0 b1 s2 g  ?! DFormat : UTF-8
2 `6 l% _: v; W& hCodec ID : S_TEXT/UTF8- m7 V) d4 d& G. |4 q# a( P
Codec ID/Info : UTF-8 Plain Text
$ S6 V% K, r/ F; vDuration : 1 h 39 min
3 C/ P6 b+ o/ Q  `1 v- ]Bit rate : 57 b/s
. X5 Q( M5 u  |2 \Frame rate : 0.181 FPS4 {; g9 B1 m5 W6 W1 ?" V5 a
Count of elements : 1077% d) p$ m+ L. r' l" |
Stream size : 42.0 KiB (0%)! k: p* p* q0 X" Q$ ?2 @9 k
Language : Spanish
/ r9 M4 x* G  M) B1 rDefault : No& B4 h( D; A( e- c, v9 S
Forced : No6 A& _" m: w$ q1 I! V" k# _8 r  o! e
- h6 q8 W# U9 j9 \2 I0 K
8 W6 d' H% P) E9 e2 B
Text #11$ J" B" U8 G6 a
ID : 13% g+ |  |% E7 g
Format : UTF-88 c' B, b0 M0 d6 o7 j- G" z8 m
Codec ID : S_TEXT/UTF8
, _$ J/ b4 |  I7 ]8 {Codec ID/Info : UTF-8 Plain Text' ^# |, a! e3 v7 D
Duration : 1 h 39 min
) {- @1 @* X9 `Bit rate : 51 b/s1 b7 N) v1 ]! U. ^
Frame rate : 0.173 FPS; S" k4 X/ J' H6 n/ N3 M8 m5 _
Count of elements : 1028: U# E( i5 T4 {$ L
Stream size : 37.5 KiB (0%)
; ^8 t; @0 i2 K' y+ H% WLanguage : Finnish
/ z7 i+ I' P$ O  ~' u1 zDefault : No! |3 |& N5 p* E" I. b
Forced : No) \, G# k0 z  @6 X2 b$ Q

: B3 n( l$ y9 s8 H6 ^! Q1 k

: m, Z8 o, [% ^. K' p+ FText #12# K; Z* O0 b. T9 V2 ^! ]( L
ID : 14
* `1 R6 L  U. n7 D; j& YFormat : UTF-8
! m! q! B0 W* c% w( PCodec ID : S_TEXT/UTF8; h; \1 l4 O$ i
Codec ID/Info : UTF-8 Plain Text
7 k! w( e) k+ ^" hDuration : 1 h 39 min8 Q9 X4 g3 \  U+ q: @! S$ ]0 b
Bit rate : 59 b/s
9 T6 e9 ]2 B" k) e4 q! @! kFrame rate : 0.180 FPS
9 W& _7 i+ Y" h; Y; F* aCount of elements : 1069
$ u: b9 y& d7 J* ?3 Q: y6 l5 ZStream size : 43.2 KiB (0%)
3 a, S4 y( ]" A) |2 }$ `2 YLanguage : French5 w3 S2 v! w* K. E. p
Default : No
7 l/ k- ^6 x# H9 I4 Y8 [" b2 l8 yForced : No3 Y8 x3 I! c0 w6 ^* S
# Y1 z- D5 H! e

2 U" H) ?/ P9 O# F( Z: VText #13
( N& ], F6 a' m% R6 f! ~% y. PID : 15
$ Q% F5 F, }9 }" H% j; CFormat : UTF-8
: s- Y& n! x* t$ ~. ~% f4 ZCodec ID : S_TEXT/UTF8* I! J+ t( ^1 t/ G8 _
Codec ID/Info : UTF-8 Plain Text" Z0 J+ O/ `2 `/ L4 [- S, _
Duration : 1 h 39 min+ i9 c" c( o/ k; k' R2 ^
Bit rate : 82 b/s
) R. C! F; v# I* J+ i% }' d7 G% BFrame rate : 0.187 FPS
- q) ~, M5 P( K* N2 lCount of elements : 1116% l+ @+ O# K# _0 R/ _. g
Stream size : 60.0 KiB (0%)
$ h" u- b& z9 ?; GLanguage : Hebrew- T5 z5 h$ y+ A
Default : No& e( w" }3 g2 r
Forced : No; _! f' U0 C9 ?7 f3 R

* q1 O! y" \- G5 f: I
, g3 y# g0 {+ n5 Y
Text #14" A( A1 t2 h+ O( y
ID : 167 P9 \! ~. A: p2 \9 z1 N! n$ }
Format : UTF-8
- f$ w0 j6 y: [# ^$ n& j5 X4 mCodec ID : S_TEXT/UTF8- y3 G" \9 p8 ^$ f( z3 X; w8 a
Codec ID/Info : UTF-8 Plain Text
1 G0 V+ t) e! |+ a9 v. ~Duration : 1 h 39 min+ l) O( ^7 l" ]! g: ]
Bit rate : 55 b/s6 E4 ~; V8 U7 D* }1 E
Frame rate : 0.183 FPS
2 `( S- V& h! g' d# k3 t: ACount of elements : 10874 f* p# O: u) ~$ Y+ K
Stream size : 40.6 KiB (0%)) \5 e- C+ s! R, j
Language : Croatian2 t( `) F. y% S" H" X
Default : No8 l  ]0 `' u$ z2 @
Forced : No- h+ O; y( A* k6 N4 L! q3 u1 z
* ~3 J  Y' J6 {
! O6 g- l: r- \
Text #15. d1 w0 L' a* T  C, K8 U8 u+ a
ID : 17
% q1 e( M  `8 Q7 \Format : UTF-8. }! E& j" K0 B: |
Codec ID : S_TEXT/UTF8
) f3 e% _( [- Y+ |Codec ID/Info : UTF-8 Plain Text
) J, Q7 o  y; G/ P7 {/ J1 ]8 aDuration : 1 h 39 min
! {* u# e/ B0 |7 N. XBit rate : 64 b/s6 f. ^# o+ n* O2 S7 T8 D- F
Frame rate : 0.182 FPS5 y, s" T/ M; ]6 G. N6 f9 ^
Count of elements : 1082
4 a8 _0 H- p5 ?3 b$ |Stream size : 47.0 KiB (0%)8 V# l# P: W7 `1 L* B, ~$ K
Language : Hungarian, x& L. d. h8 C( g- o+ K# q
Default : No
+ `4 e& }  K5 i! }% c; s5 IForced : No2 Y* S% x7 N7 w; H2 J
; x9 I# s5 O( V6 d! `2 ~

9 F( i4 Z5 l* \, |  u( o( P  IText #16
+ p+ t' ]  V% L$ r8 n! aID : 18/ x! ^; V( G1 O4 _
Format : UTF-8
' J7 |1 N+ v6 S8 ECodec ID : S_TEXT/UTF8  U: b  t# a% [
Codec ID/Info : UTF-8 Plain Text# D( t9 T' ?) y& s1 L
Duration : 1 h 39 min
5 i, T! H( c9 o- O: D0 wBit rate : 58 b/s
# F  ?4 K! u- @$ f7 HFrame rate : 0.184 FPS1 H' ^' y. Q- @  d# K$ u6 [7 q3 l5 Z
Count of elements : 10986 e$ n" l' T) L5 b$ u) d# ~* t
Stream size : 42.5 KiB (0%)
3 @3 i: X) M8 O$ y, ULanguage : Indonesian  F  |( L9 z: o+ h4 c
Default : No. Z- P3 r2 u, N2 J5 q; {
Forced : No! l% F0 c( G/ @
9 }1 a6 R9 E7 B
0 x' D8 w: }& f2 o
Text #176 W- S3 |  W' O/ t0 L' J! ^: t' ~
ID : 19' ~: w& t% `" a1 _" m
Format : UTF-86 w# _& g) }, e, u9 _
Codec ID : S_TEXT/UTF8
2 Q6 {' U. d, O0 A! M. [Codec ID/Info : UTF-8 Plain Text$ u& Q8 v# e* ?! h! |8 e  y
Duration : 1 h 39 min) p4 \# l4 `- z: K( v
Bit rate : 57 b/s
8 Z! o( W" ]1 KFrame rate : 0.170 FPS
* _9 r3 o! X. @$ u2 T6 E' t0 Y' }Count of elements : 1010
4 Y- g* B1 _9 I# HStream size : 41.5 KiB (0%)
5 J- `  _, a4 a* C; g& ~# lLanguage : Italian
* t6 o: u  r# L; o+ n; X- CDefault : No- F/ m) g0 v9 k$ e) p
Forced : No4 w/ |, Z" Q9 j/ X

7 l8 m% x/ d- T! B; }3 R+ B

2 y; @: _/ E9 `Text #18
  i" X0 [9 P7 b! S1 b# VID : 208 n% m! L" P5 e$ G% e
Format : UTF-8
( c2 U+ z5 q3 Z3 \% ^Codec ID : S_TEXT/UTF8
6 H# p$ z  m! ?0 j; Y2 ~% k- J( d) cCodec ID/Info : UTF-8 Plain Text
# e4 {; u) [& u$ S/ }5 iDuration : 1 h 39 min; N0 Y% }6 A1 C3 k0 J
Bit rate : 77 b/s- u- v$ L8 I0 A; s
Frame rate : 0.212 FPS
. _7 H+ C0 W2 {; |9 n( H6 OCount of elements : 12625 d8 {: S- }5 v0 M2 i3 _
Stream size : 56.6 KiB (0%)0 x# n* a+ H/ [( m
Language : Japanese7 Z# E: ]2 D$ O, v
Default : No+ q1 V4 ?5 f* B7 K2 \
Forced : No6 o- ~' a; R9 T0 ?) h7 u

& I2 E5 `1 r& R, ?- e6 s& _

* O( C( G, i; G0 ~Text #19
% ?! f* g- }" B  B0 S4 Y# F6 sID : 21
% k& M" U2 u! |+ |Format : UTF-8
" M" U# C) Z/ l9 u6 hCodec ID : S_TEXT/UTF8- I' e7 e3 Z/ q; ?
Codec ID/Info : UTF-8 Plain Text
& ]. X  I' O6 x5 g' }' wDuration : 1 h 39 min
* N+ O! P3 w' f9 P, ~1 cBit rate : 70 b/s7 S* T: \$ `+ o
Frame rate : 0.188 FPS- G+ F0 ?/ @' {! u
Count of elements : 1121
4 s0 q3 {* [, e, l1 rStream size : 50.9 KiB (0%)! n: p; n1 v2 m" |1 }& Y! e' F! T! o
Language : Korean
4 C  L, _9 X- c* VDefault : No6 l) r+ H, a1 L/ ~7 G0 w
Forced : No
0 l. n' D6 L8 z& f" z% [- ~3 P: C+ x- X, `% m

7 f( }2 E. v$ @, I4 D( kText #20  U# C0 F4 h$ k* o' D5 {
ID : 22/ O5 P: M* q+ o3 N
Format : UTF-8
( e8 F1 o$ x! f* ^' y" v* R1 PCodec ID : S_TEXT/UTF8
- V) O2 I9 Z: g9 L' u% KCodec ID/Info : UTF-8 Plain Text
. a( Z$ D# j5 x% JDuration : 1 h 39 min1 D& @; r8 F! d# |9 \
Bit rate : 59 b/s
6 i# G- a! G3 C6 K' v! j9 dFrame rate : 0.179 FPS
, h9 b* ?) b9 ]0 ^8 _Count of elements : 10632 Z/ S: [+ ~7 D( R! \) U% c/ z8 {
Stream size : 43.5 KiB (0%)
# S7 V1 b( Z& S5 ~, P4 }4 M2 z2 _Language : Malay
& S1 t0 j4 m4 ?8 [* ^& GDefault : No- Z4 }2 Q# ]; ~0 a, I
Forced : No
5 G) S/ n. s% h# _/ n7 J4 j) Z4 d0 s* z
. w) p+ Q  I$ \1 l& y6 U
Text #21
* i6 n8 h0 D3 NID : 23
: G$ B9 J/ g0 u2 `3 k7 Z! YFormat : UTF-8
" W; B6 i' T* w& C) M% _5 qCodec ID : S_TEXT/UTF8. f/ S: S- \; ^- k3 U; g8 l
Codec ID/Info : UTF-8 Plain Text0 `7 a# Y) ?9 W1 c' x
Duration : 1 h 39 min) h3 \. K( J8 }0 x  i3 f* v, M" o
Bit rate : 54 b/s/ I' [' y2 x1 q; F5 \9 c1 l
Frame rate : 0.177 FPS
- i* _5 ?. G6 P8 k2 p5 U7 ^* q% E& {Count of elements : 10521 D6 I" P/ ^. b% ?
Stream size : 39.9 KiB (0%)2 U1 w0 M% S8 ~" x/ H/ }3 k
Language : Norwegian Bokmal
' `, [7 E. D3 e0 q7 ^Default : No7 z+ h% ^8 t5 w0 q( f7 ?' u
Forced : No; r9 Z* z8 Z6 `: j

9 y( P9 ^8 F1 S( F4 a

) a8 c+ _7 r4 M  i% ZText #22
2 o0 x. h: f4 |  z: ]/ v( V5 I7 qID : 24* o. O% E; @! r5 x/ _& e0 N
Format : UTF-8
2 }. R2 v* j8 F- ^" [Codec ID : S_TEXT/UTF8
6 ~8 x& e* i, J6 Y, x2 fCodec ID/Info : UTF-8 Plain Text  X9 J/ u) `. X: k0 p# t
Duration : 1 h 39 min0 H2 C& ~! B8 t( f$ Y" I. G
Bit rate : 49 b/s
8 Q5 X# g8 M/ T" p7 e# M" n, DFrame rate : 0.164 FPS
* Y7 b7 ?& Y: }4 h+ P5 r7 wCount of elements : 975% V% E$ [, l) v: c
Stream size : 35.7 KiB (0%)
& D' m& H6 _' a; l6 tLanguage : Dutch
! |& |% j9 c) _& |: {Default : No
$ v1 [) R$ H6 n" v. r( v, E2 dForced : No( `  l# [6 o$ [% U. N  K7 I" V

. v3 P5 y! }3 A, V- e. {
3 r+ g7 J- z1 L. k* |
Text #23
8 I9 O- a/ E7 w! k) _, U4 GID : 25% p* c9 d# ~, G4 d& N1 _  B
Format : UTF-84 }8 F: T) I- V
Codec ID : S_TEXT/UTF8
) N) d; ]2 {2 n* g! I* mCodec ID/Info : UTF-8 Plain Text0 p! W$ u2 p. c6 l/ f6 c% v
Duration : 1 h 39 min% |4 j1 r- y; D! g
Bit rate : 47 b/s
1 D, B) G- |9 \4 m& VFrame rate : 0.182 FPS' j' o3 c! n' |9 s+ G& Z
Count of elements : 1084
2 M/ L# i- |0 ]8 kStream size : 34.7 KiB (0%)
1 R4 L8 p% L- q) P# X# [0 \Language : Polish
* \6 B( ^1 E3 }Default : No
. s( ~- E3 d- S, T2 N9 BForced : No( a" _' [2 t' V  `! D% T

' j- t. G0 Z6 h# M2 j, b
% h5 k9 G2 Z: T9 Y  s, P
Text #24
3 f7 y4 y& @7 W' V4 mID : 26
3 M- \/ R8 Q7 z" wFormat : UTF-8
6 A" o' Z* b( L5 |. B& [3 \Codec ID : S_TEXT/UTF85 ?. h. D8 ~5 b+ j$ W
Codec ID/Info : UTF-8 Plain Text
6 e3 T5 `5 x7 ~0 B/ i3 r1 N7 ^Duration : 1 h 39 min
7 Z! j( M0 B* U! {1 B; t! [7 wBit rate : 58 b/s, T' N9 z% _; H8 L) `% @- }/ n
Frame rate : 0.183 FPS
% G8 e6 i4 b( ~+ a6 I+ C+ tCount of elements : 1088
- v  {& Z& W$ b2 A7 C! U# U+ w$ d* I1 `Stream size : 42.4 KiB (0%)" L4 u: J; s& b& _
Title : Brazilian
  ]$ f3 Y' o( @7 FLanguage : Portuguese
1 ?6 ~" }; q; m3 kDefault : No
  j0 S' v0 t8 f1 u, Y" D( DForced : No
( n% ~9 a& H! Y/ e3 p
% ]" ?4 r: j9 J4 N. v
7 ^( R; x2 u# h1 V; d7 [* s
Text #25
( b- J% c$ P6 j6 _2 pID : 27
' p) |" q, D0 q/ p! V9 ?4 fFormat : UTF-8( A' y  f* E% K6 j; p3 ~8 a# n0 v, j
Codec ID : S_TEXT/UTF8
) P/ y3 I1 u$ z2 _: i! A" \Codec ID/Info : UTF-8 Plain Text: i6 b0 w/ ?1 u, e
Duration : 1 h 39 min
. o% l+ A9 Y, a! x/ ABit rate : 61 b/s
' ?; f. y+ U) M3 bFrame rate : 0.182 FPS4 v3 S6 F( \' n  z
Count of elements : 1082
; N, v  J& P6 q) y3 M  O$ pStream size : 44.7 KiB (0%)( |6 j% I: @6 J( w( N( A
Language : Portuguese
% ^0 v9 c& i5 R. B, |8 WDefault : No
  |- j8 c! _5 `, u% c2 jForced : No
0 D" Z/ |7 B6 A  g; g3 C  z6 m* S5 t# G. w/ s: p( H+ b

, T  k% N* i, z' [& EText #26( g* n7 q$ U: \7 o7 P; F6 R# `
ID : 28
8 e: ?2 E1 z% K% |3 oFormat : UTF-8
2 B$ @0 m7 \# ~Codec ID : S_TEXT/UTF8
0 Z6 ^5 E/ F( @/ ]" y/ y8 _Codec ID/Info : UTF-8 Plain Text
' @' ~  J2 X+ r9 ]4 j' ]$ c0 |Duration : 1 h 39 min
2 z8 |; G/ d  b! K! w' U7 MBit rate : 66 b/s
* g% Y1 R! |. q7 y' W; J: cFrame rate : 0.182 FPS
% D, R5 m/ f  W8 T7 k3 L- S( nCount of elements : 1083
$ N6 F# x1 J6 O0 NStream size : 48.6 KiB (0%)/ V" q& _# u% f4 X
Language : Romanian9 U4 U2 |1 O' R/ P" @0 t7 Z
Default : No: K/ f! @7 Y  z5 f; I- ^2 @
Forced : No1 r- g  q  c% D6 z& Z- M3 z
. P3 E, e& l0 q) A( n8 _3 t0 z
+ D# P  f. |- b
Text #27
1 b' B  B+ O+ J7 w1 h0 q( T3 d2 bID : 29
" D! _) p' s. O+ v$ Z) O0 j0 UFormat : UTF-8
, c2 n& T# ^  L. E- yCodec ID : S_TEXT/UTF8
# t2 h) l4 G$ Z; g; lCodec ID/Info : UTF-8 Plain Text8 @2 P" {) l% j. _( W% g
Duration : 1 h 39 min4 h) G. h& B$ {8 H4 S! u) {
Bit rate : 97 b/s! U: q* |: }1 K' h
Frame rate : 0.188 FPS
5 k# H1 v4 o; s2 n- m% o, _2 yCount of elements : 1117
; R+ Q0 e9 d% S" d. {( y3 ~Stream size : 70.9 KiB (0%)! O) L3 J( P( G& s
Language : Russian
' q. l% M) `* a% Q# T  X. ~Default : No
" l& I: d% m2 e& T1 K8 Z9 E6 e& H  UForced : No
# J& V* }! h' N" O) R# p3 Q; C
8 \: w& f2 ?# N/ h
! r, T" T) ?$ j8 W" |
Text #28( `  q/ o  E: y
ID : 304 y1 X' R- m2 P; U* h) S5 ^
Format : UTF-8
, Z8 H  Z" I5 A6 R1 tCodec ID : S_TEXT/UTF8
9 o; F) o# ]. q, d* m$ {Codec ID/Info : UTF-8 Plain Text
. C' K3 v6 L0 S; [: _; \( RDuration : 1 h 39 min
" J* Z4 r2 k& Z. _Bit rate : 58 b/s
6 t" Z- ?3 r9 _  x+ b& }Frame rate : 0.181 FPS
" \9 X, k3 o5 v7 J' s+ ZCount of elements : 1076$ C" c8 L& C5 T, K
Stream size : 42.5 KiB (0%)- H- L$ A; W3 A. _& S
Language : Swedish
2 [2 z) j, M7 ~0 y9 v7 _8 ZDefault : No: e: |, `  \% c7 [0 H; r
Forced : No
+ E' ^$ T8 m0 ?1 c  U1 C: q. V0 J6 v! t8 t# N  \4 n

/ f, O' e$ e) o: S0 g7 ?3 b9 l8 RText #296 x* @3 d5 d6 c7 b
ID : 31
4 D3 ~# h3 N! S3 X% oFormat : UTF-8
" Z# F* Q2 B9 K% p; BCodec ID : S_TEXT/UTF8
9 h4 M9 J1 d+ f8 \- m# u3 hCodec ID/Info : UTF-8 Plain Text
  T. B& W* f$ y  mDuration : 1 h 39 min4 x0 B0 W5 ?- E1 l
Bit rate : 136 b/s
2 q7 e+ @. Y2 b5 y% q" RFrame rate : 0.188 FPS
$ `) j. D1 k: c! |& uCount of elements : 1120
$ y0 e; T* E  L- m8 fStream size : 98.9 KiB (0%)
& V- Z5 n  m3 E; `: p; m: b4 QLanguage : Thai
! u% g; N4 z* J! x) RDefault : No
: i0 I6 @0 a  s" [+ @Forced : No$ I) R/ x! R9 `/ _3 ?  i+ O

8 X8 u- v1 }2 b- q5 v4 K" Q

0 v% r1 p& j7 O- F% `, bText #30
% t. `. O6 J5 h* N7 w0 r( PID : 32
% W+ z5 _; Y+ C: `$ A! wFormat : UTF-8
* ~3 X- K: |$ q$ l7 zCodec ID : S_TEXT/UTF8
" D; L$ W& s3 }9 ^Codec ID/Info : UTF-8 Plain Text
, b! G, d1 X- z1 j7 ^Duration : 1 h 39 min
  _" h, ]+ ~5 c6 I% |$ R8 bBit rate : 60 b/s1 w' k; }/ o, ~' D* l
Frame rate : 0.176 FPS: l  b5 D: s7 X
Count of elements : 1046, E9 J' _: ]) c$ q9 J& b5 v
Stream size : 43.9 KiB (0%)  D+ [+ f; G/ ]4 Y) b, A5 y
Language : Turkish
+ B6 }0 Y4 t* ^; ]4 oDefault : No
, r" b( p# i6 c% v5 P; xForced : No6 e4 |6 c/ h* i& F1 v- M, _1 l

# i: t, U6 v, i- U
( X9 R  ~, t8 m
Text #31, C: Z* }- a# }  q3 U+ t* j
ID : 33; H/ H* g3 ^( i( x% V4 N! W& j
Format : UTF-8
' ~( r1 ]& v7 O( x  m% S# h6 YCodec ID : S_TEXT/UTF86 t# Q, m. F# e' G8 v6 ?# g; W
Codec ID/Info : UTF-8 Plain Text! H) R  R. u; [: U9 J( O
Duration : 1 h 37 min2 z4 ?/ C* X3 n5 i! u* f
Bit rate : 95 b/s
6 Q* [2 ^+ C  G( [Frame rate : 0.191 FPS
% r" ^6 E0 T) e$ X' }2 OCount of elements : 1116
0 _3 q+ h' o9 ]Stream size : 68.1 KiB (0%)
$ H: r" ?: k; l5 o3 MLanguage : Ukrainian
# [* N/ H0 G! }0 M+ ]- eDefault : No$ ~# ~! X1 Y: k' X' |7 R
Forced : No
; k- j% z- P: N
# F7 a0 V, W: o$ }

/ w3 a1 _3 z6 @Text #32
& n3 @$ c. f+ l: @  JID : 34
- k% w9 L# Z$ a9 \6 K, jFormat : UTF-84 I5 k) c! y) C. Q2 S5 m9 Y" B
Codec ID : S_TEXT/UTF8
2 a3 m% t, B: _7 x! c/ u4 ]; J+ YCodec ID/Info : UTF-8 Plain Text: e2 E& g, s2 W9 [' R4 i  p
Duration : 1 h 39 min$ A% {1 y; b5 `$ r0 D9 r5 \1 j
Bit rate : 80 b/s
; ]/ q1 f& c+ H; C! B9 N' j: E6 ?Frame rate : 0.183 FPS9 \' G) J* L5 C/ x; k
Count of elements : 1088
* r5 e/ f) W1 V+ M4 ^; t% }Stream size : 58.5 KiB (0%)$ E& \! P' l8 E; R: ~& @
Language : Vietnamese
; ]( \# v, c( N2 k$ M% BDefault : No3 a/ T( J& S+ F+ b4 ^
Forced : No) d% _$ N; f3 O! F' V
( s+ I. t. a8 u

' b8 |5 _0 j* q6 MText #33$ ^' {: t9 }7 w" y8 \
ID : 359 p, M2 m7 B2 H1 J7 K7 l) }
Format : UTF-8
5 w  D& V. R, \  ECodec ID : S_TEXT/UTF8
) ?) |  c( p4 a) q& r( A$ pCodec ID/Info : UTF-8 Plain Text) t* c  p& [! \
Duration : 1 h 39 min
8 o& G2 z' h% Z- d$ w. `, UBit rate : 58 b/s6 M6 Y: F6 _/ O) r; x! d, W( q/ R! b/ Q
Frame rate : 0.186 FPS
- x  W: A7 L4 j1 S8 `; aCount of elements : 1105; P7 _3 D6 a$ V
Stream size : 42.2 KiB (0%)
( S3 _: |8 n( s; V1 x" @4 TTitle : Simplified0 u) A  S+ t& G4 G% g, h$ G+ i
Language : Chinese# D  h0 W9 _% A. Q
Default : No
( X# O2 z; ]- H+ w3 T0 n% {; E! JForced : No
4 T2 l! z* S/ @& v. M
5 ^2 b/ F5 I+ p( g: i) d
' V* A+ Q1 d% `- e: m9 i$ g4 G
Text #34- y9 d- t* o/ Y8 i3 h
ID : 36
  ]" @7 V4 X8 P# u/ i5 S$ E' gFormat : UTF-8
8 a" u/ |5 e) ?2 O; |: L; pCodec ID : S_TEXT/UTF8+ X8 E: _8 g5 h  h9 {6 C
Codec ID/Info : UTF-8 Plain Text
) l/ ?7 h* G& M4 H4 ?# cDuration : 1 h 39 min8 Q% Z: I, D6 d+ i
Bit rate : 52 b/s
  @* o; R/ m1 s  ~3 q4 DFrame rate : 0.190 FPS
1 S5 f/ Z$ p; e6 I& y  w7 {Count of elements : 1128( q+ L* d' _8 c* ^. C/ x% `
Stream size : 38.2 KiB (0%)
1 \% M! t& m' h$ n4 h/ T8 c8 vTitle : Traditional  c0 D9 s% d4 {2 ]) N
Language : Chinese
4 g9 f+ ~) U; R6 f5 e8 b: Y; s. wDefault : No
8 x/ }4 D# R: |4 o. x# WForced : No$ ]# {3 l9 L2 E) N2 E5 L# W, ]- x

6 t$ o2 e5 U" f3 [. {

' D2 D- M+ I- |$ fMenu
3 y4 |6 g$ F6 {( S0 q- m1 C5 M01:38:10.000 : en:End Credits
4 a- h3 {- f1 Q3 V9 A0 J" P* eTrailer:        
6 l) j: D7 _& e) x

) m  b, s% P" q) A3 \- H% @, x  g& r
8 h. e- P7 Y  ~! e  ~( x8 W征服14座高峰:凡事皆可能4k.14.Peaks.Nothing.Is.Impossible.2021.2160p.NF.WEB-DL.x265.10bit.SDR.DDP5.1.Atmos-4k纪录片下载
9 h. q( Z0 D1 d+ `/ _7 j! D! v4 `1 |. ~& _; Q
征服14座高峰:凡事皆可能4k.14.Peaks.Nothing.Is.Impossible.2021.2160p.NF.WEB-DL.x265.10bit.SDR.DDP5.1.Atmos-简繁中字【8.67 GB】- ?+ L2 u7 q2 @* r5 B0 I6 B

征服14座高峰:凡事皆可能4k.14.Peaks.Nothing.Is.Impossible.2021.2160p.NF.WEB-DL.x265.10bit.SDR.DDP5.1.Atmos-SMURF.torrent ( 22.36 KB )

( i1 m) }1 I0 S7 c  ^) V
4 [6 f' z3 `8 G3 f7 N
# l" ~# a4 O" h" ?
3 s- h% o% S0 S$ _6 B
登录 发布 快速回复 返回顶部 返回列表