开启辅助访问
 找回密码
 立即注册

撤退 4k.Retrograde.2022.2160p.DSNP.WEB-DL.x265.10bit.HDR.DDP5.1-纪录片

#4k记录视频#时间:2023-04-28 阅读:278 回复:0

, d0 w% ?5 P' d* M 204038kkufubfauoboa65w.jpg.jpg
# A8 R; W6 K6 b  A& R
" u0 E& \/ w1 m' W: J3 U: j4 o: x& D+ i9 ?5 Q% t
简       介

5 d8 w# ^  Q8 ]5 K# q) p- K: w& v
       通过美国绿色贝雷帽和他们训练的阿富汗军官之间的亲密关系,讲述了20年阿富汗战争的最后几个月。3 z. A' D; A" g- G) l6 T

; F5 G+ Q/ F: {撤退4k.Retrograde.2022.2160p.DSNP.WEB-DL.x265.10bit.HDR.DDP5.1-纪录片信息
Video
8 b# W1 O. R+ [2 QID : 1" t+ B  l5 \/ p" l
Format : HEVC
6 E: K( e; C; L2 c# S$ I: {Format/Info : High Efficiency Video Coding
0 [0 @  S. X& c* dFormat profile : Main 10@L5@High
* i' g) R+ Y7 i! f1 [1 sHDR format : SMPTE ST 2086, HDR10 compatible1 b- x( \1 U" ?' W# b' C: M
Codec ID : V_MPEGH/ISO/HEVC/ @. y6 a; n2 X' \
Duration : 1 h 36 min$ x: r- D2 y4 K1 v; [- A3 c
Bit rate : 14.9 Mb/s9 s/ O: G$ A7 t4 T3 H: z& `2 {
Width : 3 840 pixels
0 x& }! i7 l  D9 W( |5 _% eHeight : 2 160 pixels
  K0 H( k5 r$ o+ D. u* `Display aspect ratio : 16:9
- H7 L0 r- _6 @& XFrame rate mode : Constant
, C; _. ^$ a% P# pFrame rate : 23.976 (24000/1001) FPS
( G, o$ ], N. y1 |6 S3 GColor space : YUV
, }1 l' u* y) E; x2 h2 kChroma subsampling : 4:2:0. h6 @& F% [! y& r
Bit depth : 10 bits2 g# B1 k/ W. z0 h! A  n4 |# K
Bits/(Pixel*Frame) : 0.075
7 ~5 |; M. T' w, }Stream size : 10.1 GiB (98%)
" |: ~4 y$ T1 p1 L1 gLanguage : English
; m+ G; v* D0 l% K/ p9 V' a. pDefault : Yes
3 ^2 T5 C! R$ S' ^$ W4 RForced : No
2 y" Y( [* _/ T" ZColor range : Limited- J4 o) q$ w- a' q9 s  H6 `
Color primaries : BT.2020
* H. f: o: V5 p4 }2 yTransfer characteristics : PQ1 e, _4 U' k; u6 Q! y3 k5 j+ \& n, e
Matrix coefficients : BT.2020 non-constant4 t/ q. A; w+ o! @5 u) C
Mastering display color primaries : Display P3
1 a1 j- g3 u- ?: w/ v' [1 T5 ~- pMastering display luminance : min: 0.0010 cd/m2, max: 1000 cd/m2
( d+ }  o# J3 q- ~7 g( h3 d& s0 F% o/ R7 `4 k; n& G0 |9 [( M6 \- {7 i

( w7 S- w2 N* ^* ~$ m$ b8 e. LAudio
6 Q3 a" b* U, i( K+ yID : 2) Q+ U( g9 w0 ?, i4 g" H
Format : E-AC-3
9 R2 X* g8 G0 s, ~+ j) U2 y* BFormat/Info : Enhanced AC-3
) ^& A$ g) H; l+ ^Commercial name : Dolby Digital Plus
. Y& K  B5 B- ECodec ID : A_EAC3
* O) Q0 }! ?( U5 _2 K6 BDuration : 1 h 36 min1 v8 C6 S8 h. g( ~
Bit rate mode : Constant% ~- ^0 }+ O) u9 E% Z9 ^
Bit rate : 256 kb/s4 D' j  V- r7 p. t
Channel(s) : 6 channels
$ j4 O5 p0 t( f1 e7 P& S2 }Channel layout : L R C LFE Ls Rs
! G9 ^! l% ], I& ^+ mSampling rate : 48.0 kHz
' \/ P2 D- P3 w$ o, s8 x# }% tFrame rate : 31.250 FPS (1536 SPF)+ j  S& t$ u0 ]' n
Compression mode : Lossy% q4 ~) [8 `6 S
Stream size : 177 MiB (2%)) s3 l# }0 a; q2 s
Language : English1 v4 I  F# M- j) p, L( z) }
Service kind : Complete Main
& x( m/ L. p) v  dDefault : Yes
9 I+ s! f5 s8 @0 e5 S; ~& RForced : No
4 f1 m6 K8 U- u2 @  T: e2 }- J! H! j( F& M4 ?
, _" ?2 q+ k; Y0 d& P
Text #1
5 B: C0 L" u3 d2 d, sID : 36 l+ b1 w- A5 O: q2 B" T* ^
Format : UTF-8
3 q# @% d. V" Q# E. \2 \Codec ID : S_TEXT/UTF8. G9 y) q' ]' Y9 B5 C* q' y
Codec ID/Info : UTF-8 Plain Text( E; I  U) [' ~3 u
Duration : 1 h 28 min
, \) R1 h4 ]) \( yBit rate : 25 b/s
3 _6 f  x1 K; b, U" LFrame rate : 0.093 FPS0 S' F" X. \' F' h. i
Count of elements : 495% `1 ?8 P$ o! I
Stream size : 16.7 KiB (0%)% ]6 u5 ~8 `4 e+ Q, b! U% v" {
Title : Forced) [  T+ s1 N# m- d" ]
Language : English8 L6 G3 d; I5 \2 d, S/ F
Default : Yes
( T! a' d# ~# J+ qForced : Yes
2 J; T2 F1 w1 l* _) l8 V
* O: M: n5 f/ K& c) \

% X( |4 E& h( ~' T5 x5 kText #2
; o/ a7 v9 K, X, t6 M: {8 ^; Z, W. s' ]4 OID : 4: L6 n8 ?5 c1 W: g
Format : UTF-8# T+ X4 H- {. o- ]* U: [" S
Codec ID : S_TEXT/UTF8: J% H. k$ R5 F" p7 V
Codec ID/Info : UTF-8 Plain Text/ [' J0 |& R: Y
Duration : 1 h 33 min
8 ]4 c- D4 l" D. R- z& X+ v$ OBit rate : 74 b/s+ d* }7 E2 M% O1 ?4 T8 Y, S0 ^1 y
Frame rate : 0.231 FPS
5 Y9 w3 Y$ X( Q. p" n  b$ [Count of elements : 1301$ d9 S- V# |: a+ W2 u
Stream size : 50.9 KiB (0%)
# ~0 Y+ _" H, l' S* sTitle : SDH1 i2 y/ y% ]1 E& g- @4 ^( [' M
Language : English
% l0 Z% E, z5 H" o5 F0 zDefault : No6 G& _% Z% G! a& f( w
Forced : No
* h0 I' O, n  u3 \
  b* }( f! }" n) ^8 j! S

9 H* N- v8 u- B" R: F1 X% q' D( [/ c, k

& N) `7 T7 _* i6 P. |Text #23
# Z! q' Y8 Q8 A8 YID : 252 o2 U+ [7 Y2 J8 i2 e( d2 j
Format : UTF-8
8 ]+ l7 B$ f8 UCodec ID : S_TEXT/UTF8
) x5 J# }, i/ G# p" G9 `Codec ID/Info : UTF-8 Plain Text. z% h- B# l* W0 D% t% ~
Duration : 1 h 35 min! Y% `5 q3 Y- C; l8 x
Bit rate : 43 b/s; w* v, J" _) f0 o
Frame rate : 0.189 FPS
. @5 E+ Z8 s" l1 m. B2 M+ XCount of elements : 1089  ?  a2 X. a6 C0 Y
Stream size : 30.8 KiB (0%)2 l: Q7 A7 ?7 b: a9 N6 {
Title : Simplified
9 V' @; A! m" k' ~" qLanguage : Chinese! X3 J/ g; E( `5 F8 Z( _: ]* [
Default : No
6 y3 ?$ M3 A3 ~; f( l- YForced : No
% y7 V8 c. Z  `, w: w
& |; g: W0 J+ R, v
# d$ u% e% P4 C3 Y( X* Z3 e
Text #243 t& t( z% W+ q# e( k
ID : 26
; [, e6 I% U4 _  GFormat : UTF-8
/ I" y8 L: Z8 h7 U! VCodec ID : S_TEXT/UTF8$ K3 q+ I/ |" n) a0 ?) c& _5 [
Codec ID/Info : UTF-8 Plain Text  B1 |$ m# j4 R" d9 c2 @
Duration : 1 h 35 min5 ^8 n) E" W2 Y* J
Bit rate : 44 b/s- `: A2 P  Y. |
Frame rate : 0.189 FPS
# p, F) p# Z& b+ D7 G& z9 JCount of elements : 10881 ]$ Z/ b; G) E4 l' \! n/ L$ k
Stream size : 31.0 KiB (0%)
; r# m) `. u, JTitle : Traditional/ [$ o4 p/ q4 U5 ^
Language : Chinese8 y3 g$ T; q2 L7 q! d9 Z, X+ h
Default : No% n$ A; H9 W" o' n; @& ?
Forced : No
. K5 d+ T0 j* D( o( _0 T+ {& |0 d6 {0 Y
撤退4k.Retrograde.2022.2160p.DSNP.WEB-DL.x265.10bit.HDR.DDP5.1-纪录片下载& P. [6 M! c- J3 x& j/ k
5 B5 I6 f5 _3 O
撤退4k.Retrograde.2022.2160p.DSNP.WEB-DL.x265.10bit.HDR.DDP5.1-简繁中字【10.23 GB】: H& Q' j+ w5 G/ C2 p- f! Q

撤退4k.Retrograde.2022.2160p.DSNP.WEB-DL.x265.10bit.HDR.DDP5.1-Kitsune.torrent ( 13.43 KB )


, u# e; E' Z$ p# }; N9 Q5 @4 H$ M
! J2 L( A9 A$ x* {' l4 E. b( r+ {4 c6 h' ?

2 m6 w. I6 s. E" d! M& Q/ X
登录 发布 快速回复 返回顶部 返回列表