开启辅助访问
 找回密码
 立即注册

Predators.2022.S01.INTERNAL.2160p.AUHDTV.x265-纪录片

#4k记录视频#时间:2023-04-28 阅读:349 回复:0
Predators.2022.S01.INTERNAL.2160p.AUHDTV.x265-纪录片信息
# E8 M- H) \* }2 f; [8 Y1 i, l4 YVideo0 l. F/ @  `% B# v6 D3 ], D
ID : 1
5 Z: S) A) m( r" k9 [/ P1 wFormat : HEVC
9 F3 U: D. f+ W! q2 K/ |$ G, MFormat/Info : High Efficiency Video Coding
3 c+ }' I8 V% u* M8 GFormat profile : Main 10@L5.2@High
4 T7 [9 i/ ~+ k( Q5 e) @Codec ID : V_MPEGH/ISO/HEVC: W: p4 C. u9 A
Duration : 52 min 5 s
; F" N5 w, `: X+ F+ h: A5 M. E% xBit rate : 53.2 Mb/s
( E+ G* b/ W, R8 pWidth : 3 840 pixels
; D7 {& \' i1 zHeight : 2 160 pixels9 Q& Y  ?+ k6 A# g/ i" O& p" }
Display aspect ratio : 16:9( C$ |7 r+ Z  o
Frame rate mode : Constant. X! }7 {6 M" k
Frame rate : 50.000 FPS7 a- @. S2 K) G4 x) [- x2 T0 k* J
Color space : YUV% L: M6 u! U6 Q2 @: e( H: L4 D
Chroma subsampling : 4:2:07 P$ ^$ t0 U, D
Bit depth : 10 bits
1 }( s$ D% s/ ~  JBits/(Pixel*Frame) : 0.1289 G" _# e6 f& p% W
Stream size : 19.4 GiB (99%)" ]7 N% B6 D) U& j
Writing library : x265 3.4+29-4e3bb4354:[Windows][GCC 10.2.0][64 bit] 10bit  i: q# k/ b0 }$ p
Encoding settings : cpuid=1111039 / frame-threads=4 / numa-pools=16 / wpp / no-pmode / no-pme / no-psnr / no-ssim / log-level=2 / input-csp=1 / input-res=3840x2160 / interlace=0 / total-frames=0 / level-idc=52 / high-tier=1 / uhd-bd=0 / ref=4 / no-allow-non-conformance / repeat-headers / annexb / aud / hrd / info / hash=0 / no-temporal-layers / open-gop / min-keyint=25 / keyint=250 / gop-lookahead=0 / bframes=4 / b-adapt=2 / b-pyramid / bframe-bias=0 / rc-lookahead=25 / lookahead-slices=4 / scenecut=40 / hist-scenecut=0 / radl=0 / no-splice / no-intra-refresh / ctu=64 / min-cu-size=8 / rect / no-amp / max-tu-size=32 / tu-inter-depth=1 / tu-intra-depth=1 / limit-tu=0 / rdoq-level=2 / dynamic-rd=0.00 / no-ssim-rd / signhide / no-tskip / nr-intra=0 / nr-inter=0 / no-constrained-intra / strong-intra-smoothing / max-merge=3 / limit-refs=3 / limit-modes / me=3 / subme=3 / merange=57 / temporal-mvp / no-frame-dup / no-hme / weightp / no-weightb / no-analyze-src-pics / deblock=0:0 / sao / no-sao-non-deblock / rd=4 / selective-sao=4 / no-early-skip / rskip / no-fast-intra / no-tskip-fast / no-cu-lossless / no-b-intra / no-splitrd-skip / rdpenalty=0 / psy-rd=2.00 / psy-rdoq=1.00 / no-rd-refine / no-lossless / cbqpoffs=0 / crqpoffs=0 / rc=crf / crf=17.0 / qcomp=0.60 / qpstep=4 / stats-write=0 / stats-read=0 / vbv-maxrate=240000 / vbv-bufsize=240000 / vbv-init=0.9 / min-vbv-fullness=50.0 / max-vbv-fullness=80.0 / crf-max=0.0 / crf-min=0.0 / ipratio=1.40 / pbratio=1.30 / aq-mode=2 / aq-strength=1.00 / cutree / zone-count=0 / no-strict-cbr / qg-size=32 / no-rc-grain / qpmax=69 / qpmin=0 / no-const-vbv / sar=1 / overscan=0 / videoformat=5 / range=0 / colorprim=1 / transfer=1 / colormatrix=1 / chromaloc=0 / display-window=0 / cll=0,0 / min-luma=0 / max-luma=1023 / log2-max-poc-lsb=8 / vui-timing-info / vui-hrd-info / slices=1 / no-opt-qp-pps / no-opt-ref-list-length-pps / no-multi-pass-opt-rps / scenecut-bias=0.05 / hist-threshold=0.03 / no-opt-cu-delta-qp / no-aq-motion / no-hdr10 / no-hdr10-opt / no-dhdr10-opt / no-idr-recovery-sei / analysis-reuse-level=0 / analysis-save-reuse-level=0 / analysis-load-reuse-level=0 / scale-factor=0 / refine-intra=0 / refine-inter=0 / refine-mv=1 / refine-ctu-distortion=0 / no-limit-sao / ctu-info=0 / no-lowpass-dct / refine-analysis-type=0 / copy-pic=1 / max-ausize-factor=1.0 / no-dynamic-refine / no-single-sei / no-hevc-aq / no-svt / no-field / qp-adaptation-range=1.00 / no-scenecut-aware-qpconformance-window-offsets / right=0 / bottom=0 / decoder-max-rate=0 / no-vbv-live-multi-pass
8 Y" e5 e" M$ c: o' k& O+ u; c, `Default : Yes% @5 c3 `! R9 z7 J! I5 n$ N/ I5 k
Forced : No( _7 |; g) }% J. _, `1 a  u2 H* m" l
Color range : Limited/ K9 a- M. [1 R* d
Color primaries : BT.709& p  U. a9 R4 T1 z% g! q
Transfer characteristics : BT.7093 ^, @7 @) G! |! s
Matrix coefficients : BT.7097 i+ W9 d' \3 k
* J' b5 i1 o  o' l2 O

0 y* _8 [6 ^5 C6 m3 f( |- c( U2 A& HAudio% _. p& L. R$ ]$ N. x
ID : 2
; Y7 G! u6 m  U' pFormat : AC-3* s3 K1 I0 d  H' V- @! k
Format/Info : Audio Coding 3
7 B# d4 p5 c' ECommercial name : Dolby Digital
7 e7 |2 Q8 K0 |. }" Q; fCodec ID : A_AC3
) r! G, {% R9 E( O( V# ~0 T& mDuration : 52 min 5 s- c% A2 X7 ^4 v% l; f
Bit rate mode : Constant
8 l; M9 @. c% P# b0 ZBit rate : 384 kb/s/ w( z) [) m; K9 [& T
Channel(s) : 2 channels5 s1 R% J6 y& p
Channel layout : L R% p: h* |) V8 C- a  t3 \
Sampling rate : 48.0 kHz
! }# a0 p, l. K/ LFrame rate : 31.250 FPS (1536 SPF), }- c  k0 ^; J+ f* x+ V
Compression mode : Lossy
$ e! n, [6 W% q+ ^- M1 x0 T# cDelay relative to video : 50 ms
8 q0 g; X" ^9 `: x; m* E& c/ |Stream size : 143 MiB (1%). }) a% Y; R$ m' d" O' C8 s0 s
Service kind : Complete Main7 X- u9 {9 K! @, C$ X1 B
Default : Yes6 f1 z8 e+ s  O
Forced : No# a# w  d8 W% ?6 f6 N4 p
: Z2 q) \7 t' T3 s0 c' F7 C% U& |5 I4 H

/ K) F3 g6 S' ^+ o 165146btx0oxo9a8qq8mm2.jpg.jpg
8 v: ~) h4 }4 O  l+ Z% q" u  g6 b' N3 ~
* L' y, d" I1 c8 }' a3 T
Predators.2022.S01.INTERNAL.2160p.AUHDTV.x265-纪录片下载  ]4 |1 e1 _# Y$ k/ b5 A, M

! }: W% Y$ W! T0 t! D4 D/ uPredators.2022.S01.INTERNAL.2160p.AUHDTV.x265【76.45 GB】" h$ i* K+ m: X9 o( [$ ~4 M- G

Predators.2022.S01.INTERNAL.2160p.AUHDTV.x265-FaiLED[rartv].torrent ( 96.56 KB )


% J, T( K- o/ o4 |
9 b3 t- s! y* m, h1 O' X: Z  R7 M1 A5 @3 E# ~9 I; y* L: W
5 p! U+ U4 s) b( b
登录 发布 快速回复 返回顶部 返回列表