开启辅助访问
 找回密码
 立即注册

野猫4K Wildcat.2022.2160p.AMZN.WEB-DL.x265.10bit.HDR10Plus.DDP5.1-4K纪录片电影

#4k记录视频#时间:2023-04-28 阅读:264 回复:0
6 H$ o. O; W: f3 }
135554a2maeesu18csn759.jpg.jpg + F5 i  ?1 x9 R5 f* t
, u/ t9 K# r) j
/ N' u( ?& A7 g/ S, |
简       介

% h2 S$ V0 b* Z) I5 h, W1 f, `* T" w; X0 Y
       英国士兵哈利·特纳(Harry Turner)18岁时被部署到阿富汗。他从战争中归来,是一个破碎的人。他与创伤后应激障碍、抑郁症和自杀念头作斗争,深入秘鲁雨林,在那里他遇到了美国科学家萨曼莎。他们一起照顾一只孤角犀牛,一只小斑点野猫。. l0 [& H; O# [, W$ m6 w/ j5 z, |
这部电影部分由哈里和萨曼莎自己拍摄的素材组成,部分由《野猫》(Wildcat)的导演拍摄,后者后来加入了这对组合。人与动物之间的亲密时刻,加上变幻莫测的夜间丛林的精彩镜头,形成了一幅不断与恶魔搏斗的人物情感曲折的肖像。正是在这场斗争中,哈利与这只年轻的野兽建立了联系。$ ]/ w6 X, q4 x6 i* u( ]/ `, U
他试图拯救犀牛,最重要的是试图拯救自己。事实证明,让动物自力更生是一种放手的练习。当哈利在丛林中引导动物时,他也必须找到回归社会和家庭的道路。- O7 E. B1 K, e0 K

9 `; ^8 B6 Z# S5 X" g5 F. `' [影片参数
$ j. x2 S0 A3 M7 T  M7 B
2 m( A( W/ X: M
野猫4K Wildcat.2022.2160p.AMZN.WEB-DL.x265.10bit.HDR10Plus.DDP5.1-4K纪录片电影资源信息
. v+ V4 e9 r3 y" i) L  EVideo
5 r9 z. j+ p# h0 A; A  t* ]ID : 1
- a& r  B' ~* H/ ~9 ~8 ~Format : HEVC
5 [" g7 W. p. A; r8 NFormat/Info : High Efficiency Video Coding& |2 P( b# O3 j, o* z/ M
Format profile : Main 10@L5@Main9 M, g% z, u5 a2 F5 Z5 c
HDR format : SMPTE ST 2094 App 4, Version 1, HDR10+ Profile B compatible
, D) T! c% g" P% E8 Y' V1 zCodec ID : V_MPEGH/ISO/HEVC1 A, D+ z% ^& X& g
Duration : 1 h 45 min7 N3 ~+ j! u9 U# {1 r& z
Bit rate : 14.4 Mb/s/ A" f8 F0 I2 t
Width : 3 840 pixels! j" C" Z, L( x! G: O8 Y; i
Height : 2 160 pixels
) v5 Q2 W( b* u. P1 [; n9 MDisplay aspect ratio : 16:9
. y3 o4 M  E$ H9 @1 c, F" Q3 KFrame rate mode : Constant5 i* Y, l3 b( n4 |* r+ ?3 r! q
Frame rate : 23.976 (24000/1001) FPS7 A0 e' y- |# `/ H
Color space : YUV
9 G1 G3 S8 S# PChroma subsampling : 4:2:0- h; d  l6 S2 h6 g
Bit depth : 10 bits
! r1 a0 R* x3 O) |Bits/(Pixel*Frame) : 0.0727 `9 k, z! W+ G
Stream size : 10.6 GiB (96%)/ _5 `. E) E, @8 k& S1 b! x
Language : English (US)
4 x: O, ~7 C9 V* QDefault : Yes8 B% [. y  b+ _: M! T
Forced : No
9 `7 l/ ^: B, A4 h* \- b  BColor range : Limited
9 _3 }  _* Y  W- kColor primaries : BT.2020, u+ h# j5 E/ X+ o/ I
Transfer characteristics : PQ
$ j' B5 i8 ~- ]' `' q; k) k0 oMatrix coefficients : BT.2020 non-constant
4 S  q+ X; Z2 m. X9 |Mastering display color primaries : Display P3
9 d9 ~* B- E! C- X7 NMastering display luminance : min: 0.0001 cd/m2, max: 1000 cd/m2
6 ~  C# X+ B5 G$ CMaximum Content Light Level : 992 cd/m2, a; R( S; q* U) e; `
Maximum Frame-Average Light Level : 100 cd/m2: d& H/ ]3 `$ W& @! Y) J

& k  i( A5 r: c5 A3 F9 Z! ^

5 I7 H" G, m" L  {& `# mAudio- C& i5 n6 ^6 Y+ [3 s* M. V$ a
ID : 2
, u3 E( U; a' z  i8 J1 pFormat : E-AC-3
- Y) G, M, v; B& ]3 Q$ K( X8 SFormat/Info : Enhanced AC-3* p# j' U% l3 m
Commercial name : Dolby Digital Plus& ]) \# V9 `1 i& W4 \+ ~$ U; a
Codec ID : A_EAC39 j9 m: ]( }; v) g1 \1 H& R- Q
Duration : 1 h 45 min
6 r& b* x7 Q$ o5 g' ~+ y8 x# H+ _Bit rate mode : Constant
# ]8 B' s% Z9 X! q9 qBit rate : 640 kb/s
1 D+ k& j8 I+ n9 GChannel(s) : 6 channels" {; A) B# V7 ~# \5 [
Channel layout : L R C LFE Ls Rs
; w8 C* s+ i& ^; X9 j3 USampling rate : 48.0 kHz
. T, @$ F" [, o$ C- o0 ]Frame rate : 31.250 FPS (1536 SPF)
5 o: O8 V4 f# i1 c# |) x, d5 NCompression mode : Lossy  ]5 b* _2 w" s2 {
Stream size : 485 MiB (4%)- ?* J8 w4 u% l. j9 r9 f
Language : English (US)$ @1 y9 T9 D+ U9 p6 Y) {3 P6 ]2 u
Service kind : Complete Main
' t7 d5 ^3 A5 w& ]8 I0 oDefault : Yes8 ^4 A5 ]) r% m4 s: U8 `, z4 K1 N
Forced : No
( r1 H# J5 i& J1 X9 w/ }$ r6 N" Q- e- V0 \% {
, i! [; z' A0 X, }9 `
Text #1
) ~- b1 _+ M# `9 O' u$ n- cID : 3
5 y2 ?' y8 `& Q6 i' J* ~7 x+ _Format : UTF-8$ s, T  I2 @& @0 p
Codec ID : S_TEXT/UTF8
- Q8 K; G$ M1 o4 r* nCodec ID/Info : UTF-8 Plain Text
; x, |' b: w" C( V+ qDuration : 1 h 31 min
6 n: D. l# t$ R) Y  R; A% FBit rate : 3 b/s3 O" C5 h0 F4 A. B% p! h) s
Frame rate : 0.014 FPS
) M; x+ G5 g9 cCount of elements : 79
; {; u( w4 I) w# `4 sStream size : 2.32 KiB (0%)) m$ ?  X9 p$ d4 b- d( F2 y3 C
Title : Forced" O- z  Q2 n) B, ~/ F  A$ U. @
Language : English (US): ^# v9 \# I7 \7 J3 j
Default : Yes
1 N4 h# R$ T4 o2 ^Forced : Yes3 \% d# K0 I& E0 y4 f3 V  ~; w

1 w1 z: {; m4 M. \. T
: v3 K8 _" n+ o" J
Text #2
/ I; \2 O& c- @! C" J) ZID : 4
) ~9 V( x# h) t5 A. ?' L" h* `Format : UTF-87 Y# W0 X, T" I5 u( W) c
Codec ID : S_TEXT/UTF8
( c8 x- t- N, Q+ F0 c" |- _Codec ID/Info : UTF-8 Plain Text* {( P& t( T2 v3 c' u! j5 }6 k
Duration : 1 h 39 min$ ~) q/ B' v2 P& c
Bit rate : 56 b/s8 A4 Y% d( J) X: K
Frame rate : 0.209 FPS6 J% C7 J: d0 I4 P2 g
Count of elements : 1246
; ^' y! q1 e4 D: IStream size : 41.5 KiB (0%)) a9 j5 f. C' o5 B- B3 ]
Language : English (US)
2 b: R8 g3 I! a1 X9 VDefault : No
5 _1 z( T9 W6 ^- VForced : No) T4 D- d) C0 c
, F3 c0 S. r# Q% c% e
# p2 c2 L4 H2 V6 X$ {
Text #32 |5 ^' ~3 q/ ?' w, Z
ID : 54 B& w6 D+ m$ E: e2 I  ^
Format : UTF-8
0 f  J+ s! t1 HCodec ID : S_TEXT/UTF8
6 F; h2 @7 d+ ~3 a# q8 z% zCodec ID/Info : UTF-8 Plain Text6 h) m, m2 d$ w- ~" U1 c
Duration : 1 h 44 min% t$ `  j9 A" u3 C, v; }% g
Bit rate : 63 b/s
! l1 L, O3 p) e2 l9 @8 J2 eFrame rate : 0.251 FPS! E4 P$ @5 Y- w1 {- Y9 m
Count of elements : 1574
/ ~8 r9 W7 k9 ]' Y9 e7 z) F/ TStream size : 48.4 KiB (0%)
0 h( ^+ Z  Y/ @+ P6 vTitle : SDH9 L$ s' O& K. M4 i
Language : English (US)
8 B2 _) `2 ^* c( H: B4 v% o9 xDefault : No
/ d' j4 A" r) q2 |4 A. U+ ]/ DForced : No; `% n, E* {% ?! f4 {% e/ O- }2 W
" t! o, h% D0 h5 u

8 Y) |# Y% Y) J7 \( O$ XText #35
3 P3 x1 N, Y5 PID : 37
# C8 D5 p; \: _+ f0 ~Format : UTF-8
. [2 l8 I# }$ D8 H- d: PCodec ID : S_TEXT/UTF8
; x4 g3 Y4 ~, d4 gCodec ID/Info : UTF-8 Plain Text) Q" u( K) u9 }9 F; A
Duration : 1 h 45 min8 N2 B) Q5 q+ s5 V( \
Bit rate : 60 b/s
) m: Q  r" O! V2 t/ O; K' c' |Frame rate : 0.189 FPS; V" ?8 X+ M  {
Count of elements : 1202
; |& b; ]( i% K/ xStream size : 46.8 KiB (0%)
1 |! n4 a  S. S; t7 U% v/ `" J/ zTitle : Vietnam
) R( |7 N- \* m! ?$ G/ O; ALanguage : Vietnamese (VN)
" U: i7 u; C9 d5 t/ X2 e. }9 O6 b0 GDefault : No
" K( \5 T4 h8 i0 T/ GForced : No
- x+ m! j! m/ @- k: h, R0 j$ p  K2 n  j% R0 P1 }( L2 N3 `
$ y2 t7 a% s' J/ X. p
Text #362 m: S3 z3 n: c' Z( m. X) G
ID : 382 a  I" X6 n* p) e' A0 d1 a/ M) v
Format : UTF-81 `1 ?& p/ M" c  I6 Q
Codec ID : S_TEXT/UTF84 ]. @; [- \# U. ?* f/ r* f' V( h
Codec ID/Info : UTF-8 Plain Text
# p; I( Y: M; w* f$ KDuration : 1 h 45 min; ^2 A. J' K7 G$ Y. g6 d$ H  D
Bit rate : 46 b/s$ {4 M2 `! L! x% }- w* e
Frame rate : 0.190 FPS
% ^3 O: m9 w$ j1 z) o( k/ }$ wCount of elements : 1204
1 ~" L, t3 X4 w- ?. y2 mStream size : 36.1 KiB (0%)
9 V5 {- D8 K' y# e; O5 C, sTitle : Simplified
. m8 M9 i  j$ ^  ELanguage : Chinese (Simplied)
( a) R: [- M0 lDefault : No
) q2 J( T% [4 a8 hForced : No
- C$ i7 p  F9 o1 e5 [+ R) N+ ^: A' J" O; z
6 L; a6 P% \) J
Text #37. ]5 |! c& q! F* l7 ~" M
ID : 39' R7 J# h* ]7 g
Format : UTF-8: |  S4 m" X& S( U) V2 c
Codec ID : S_TEXT/UTF8) g; b. x$ p5 r+ C+ o
Codec ID/Info : UTF-8 Plain Text
" a1 S5 X& g& ]1 JDuration : 1 h 45 min
0 @) o% C# O, O& @Bit rate : 45 b/s4 t+ \% r) U( F! T$ i
Frame rate : 0.190 FPS
! m7 e/ N2 {- w8 h7 n5 s! FCount of elements : 12045 T" {& D7 L3 g7 T
Stream size : 35.0 KiB (0%)
5 b) h' y& I7 ^- S+ d2 lTitle : Traditional3 h1 J& W& n2 d- {; H/ A
Language : Chinese (Traditional)
2 t0 V. B3 `" _8 u4 l9 oDefault : No
( K% C4 t/ J3 F* KForced : No
6 f9 R& G  E" a0 ^1 @& D# g; X
7 S) P" {( s; d; g

/ x4 E% G8 Z$ ^  Z: |0 x5 V1 l5 o! VMenu
; g6 _/ E1 [$ x& O/ X& `00:00:00.000 : en:Warning( w  |8 ^* R2 ]
00:00:12.000 : en:Studio Logo
) g7 q; W5 S- Y* Y3 @00:01:00.000 : en:Scene 3
  C+ {0 A- S2 \( M/ e' y3 S; C00:03:02.000 : en:Title Sequence1 n+ w$ I0 v" `
00:03:07.000 : en:Scene 5
$ T: P$ k4 I! p5 e00:06:28.000 : en:Scene 6
& j" w/ o4 m# \# @0 ^# ~4 D4 @00:10:24.000 : en:Scene 7% [; G3 A# z+ P! r" R7 F6 o9 r
00:14:15.000 : en:Scene 8
, T) P7 e9 V3 ~  ]: u00:17:14.000 : en:Scene 9
/ p2 g# V- V' @; p4 H, `00:20:45.000 : en:Scene 10
9 q7 Y" E, [- H: X, @) ~. l# A00:25:47.000 : en:Scene 11
5 E8 W. T3 x( K: }( |00:30:40.000 : en:Scene 12
0 Q( y. H$ n) m4 p00:35:31.000 : en:Scene 13) w' w* }2 p' @7 |/ \) C, F, T
00:38:56.000 : en:Scene 14+ V9 s# Y. T. b; n0 _/ h
00:41:56.000 : en:Scene 152 ^! R4 U9 ^1 }$ l
00:46:45.000 : en:Scene 16+ ]2 ]3 r1 h! J! ?5 J0 @
00:50:56.000 : en:Scene 17
6 U0 w: g% K1 V8 ^) @6 i1 ~00:54:09.000 : en:Scene 185 p" E. ~9 `$ |1 x+ ~9 I+ r
00:58:26.000 : en:Scene 19
5 H9 R1 l8 _2 R" J0 i" Q01:02:47.000 : en:Scene 20' U3 v! R6 U& {. _6 M
01:05:01.000 : en:Scene 210 ?8 @0 K0 a$ h
01:09:28.000 : en:Scene 22. F/ j" g, {- U$ j6 F
01:12:09.000 : en:Scene 23
; h' c3 D6 o7 B( Y9 J9 E/ U: A  B01:16:09.000 : en:Scene 24
3 t; m! A$ g6 C1 q7 Q01:20:12.000 : en:Scene 25
" N, a; f5 A3 I( J, x01:24:55.000 : en:Scene 26
! M+ H- n8 ?/ M, l01:27:21.000 : en:Scene 27! O9 Q# I7 Z/ E' D+ S; t) j
01:33:24.000 : en:Scene 28
/ @$ @& H( G- ^+ n. a6 J01:36:31.000 : en:Scene 29
: |. u* x+ a. v) k" O: v7 ^01:39:12.000 : en:Scene 305 _2 D9 j5 v, b4 A) U0 I9 s; Y; L
01:41:30.000 : en:Scene 31
, o' x% E4 r/ `1 Q) X01:41:39.000 : en:End Credits
% K- D" }, |! y4 B! g3 O0 a
野猫4K Wildcat.2022.2160p.AMZN.WEB-DL.x265.10bit.HDR10Plus.DDP5.1-4K纪录片电影资源下载9 x; C; d; @6 n- b" ^4 C' \; \
' O" ?! j" D0 }* c
野猫4K Wildcat.2022.2160p.AMZN.WEB-DL.x265.10bit.HDR10Plus.DDP5.1【简繁中字】【HDR 11.11 GB】
: k. x; y' \# k" L4 w

野猫4K Wildcat.2022.2160p.AMZN.WEB-DL.x265.10bit.HDR10Plus.DDP5.1-FLUX.torrent ( 14.54 KB )

( C- Q$ W/ d3 B: z, [
% h/ ^8 Z- C" N
7 C/ }0 S& g; {! O1 x5 e& g

7 j; e0 @+ j  H- V2 [" _* D  M
登录 发布 快速回复 返回顶部 返回列表