开启辅助访问
 找回密码
 立即注册

野猫4K Wildcat.2022.2160p.AMZN.WEB-DL.x265.10bit.HDR10Plus.DDP5.1-4K纪录片电影

#4k记录视频#时间:2023-04-28 阅读:360 回复:0

# c4 x/ s6 h1 }0 W# Q: E0 g3 R5 \ 135554a2maeesu18csn759.jpg.jpg
" Y0 K; J* f7 T& R& X$ Y
$ W* s) O5 W0 t& G$ A) j6 @& [" W' |! {
简       介

' ?" n  x# y; z& K
/ x2 {- e" n* W, s; D1 ^9 R2 V5 W       英国士兵哈利·特纳(Harry Turner)18岁时被部署到阿富汗。他从战争中归来,是一个破碎的人。他与创伤后应激障碍、抑郁症和自杀念头作斗争,深入秘鲁雨林,在那里他遇到了美国科学家萨曼莎。他们一起照顾一只孤角犀牛,一只小斑点野猫。* h) s! a6 L, ]4 n( j) V
这部电影部分由哈里和萨曼莎自己拍摄的素材组成,部分由《野猫》(Wildcat)的导演拍摄,后者后来加入了这对组合。人与动物之间的亲密时刻,加上变幻莫测的夜间丛林的精彩镜头,形成了一幅不断与恶魔搏斗的人物情感曲折的肖像。正是在这场斗争中,哈利与这只年轻的野兽建立了联系。* U& k* O3 u8 g! D2 e
他试图拯救犀牛,最重要的是试图拯救自己。事实证明,让动物自力更生是一种放手的练习。当哈利在丛林中引导动物时,他也必须找到回归社会和家庭的道路。: T; I4 J1 Z, @/ @

/ Z  r- V4 x# n" l! e# o( q5 Z; w影片参数5 I$ }7 G1 H) t% ]) B

0 w/ n  X: o7 ?% T$ V* v* Z( D
野猫4K Wildcat.2022.2160p.AMZN.WEB-DL.x265.10bit.HDR10Plus.DDP5.1-4K纪录片电影资源信息' E8 M) B% d# S% Z& Q
Video% W' B2 M) ]7 L% i) ]) U
ID : 1
% G' Y0 \2 L* a- f) b; ?) @0 m  Z8 MFormat : HEVC( O1 r: C  j: Q
Format/Info : High Efficiency Video Coding
, a1 [; ^$ ~/ b+ Z3 Z! PFormat profile : Main 10@L5@Main0 u( j) s8 g$ v% z
HDR format : SMPTE ST 2094 App 4, Version 1, HDR10+ Profile B compatible/ j2 A. {5 C- \) h2 K' P
Codec ID : V_MPEGH/ISO/HEVC
$ g) I9 A  \6 `& L6 W! ?! mDuration : 1 h 45 min! S5 D- V( j/ ~! j9 j
Bit rate : 14.4 Mb/s
& `& H, A7 f3 j6 RWidth : 3 840 pixels
: @; J4 H" C+ }' Y4 x, THeight : 2 160 pixels
+ B6 H# H5 a& N9 oDisplay aspect ratio : 16:9
3 i" ^4 U2 N8 B$ u1 yFrame rate mode : Constant
  L9 A2 T& c- ^/ MFrame rate : 23.976 (24000/1001) FPS
$ i# v- Z7 Y4 Y/ R( ~3 Z' g! jColor space : YUV" Y0 V3 Z  Y7 Z! C& _) |; \
Chroma subsampling : 4:2:0' h7 a. n- j( F7 q  F  t! ^' A
Bit depth : 10 bits
" @8 _6 A. d" g! _Bits/(Pixel*Frame) : 0.072! n( m( t4 ]& Y; t
Stream size : 10.6 GiB (96%)3 a, K& }" M/ ~0 f
Language : English (US)
7 A' |) I; }+ {; n# VDefault : Yes/ k$ ?2 m6 C# D) a" W
Forced : No' V+ f% j. P1 V4 {1 m
Color range : Limited% w+ u1 d* C$ d0 u! W1 U# Y
Color primaries : BT.2020! y# o, O9 U4 W1 u" n
Transfer characteristics : PQ) p  G) z0 E( A( f
Matrix coefficients : BT.2020 non-constant
9 S8 e6 d: U/ }) k  s* rMastering display color primaries : Display P3
; }% M" j' ^% |. s7 fMastering display luminance : min: 0.0001 cd/m2, max: 1000 cd/m2
- W. v" m4 \% `3 LMaximum Content Light Level : 992 cd/m2
) e, S, f# k2 d$ _0 I. @% u, eMaximum Frame-Average Light Level : 100 cd/m27 w3 z/ B6 a5 P+ i0 A. `) z
1 V- C5 K+ E( i9 Q) l
# ]. `5 P+ W4 ~
Audio
0 \; j' V2 v4 H9 Q! {% `( F3 C0 zID : 2
7 x& @9 ]6 V6 k& Y0 _5 {Format : E-AC-3( i  N: X+ N# ?; Q
Format/Info : Enhanced AC-3
0 V. k1 @3 [3 s7 X' c+ k7 cCommercial name : Dolby Digital Plus4 b, `, B7 q+ @3 c/ B; N- n
Codec ID : A_EAC3+ Y/ U4 [5 z- m3 c- y
Duration : 1 h 45 min) a" Z0 E" a  q! P. S9 U4 ?; Q
Bit rate mode : Constant
# x0 h" c. E* S4 {) h4 vBit rate : 640 kb/s
- y" J6 u  c0 P. @; ~% uChannel(s) : 6 channels
: E* A, }3 }4 h" w( A3 }Channel layout : L R C LFE Ls Rs9 i- }) l+ Q* _# S9 |8 P
Sampling rate : 48.0 kHz% E, d" p* s; P9 ^+ Y
Frame rate : 31.250 FPS (1536 SPF)- L2 u! B$ U( Y, D4 o
Compression mode : Lossy
5 C1 e6 r- t( o$ }3 UStream size : 485 MiB (4%)
, t8 ]* c5 O" U3 g+ C  [Language : English (US)9 ?5 ^. m& V/ \# @
Service kind : Complete Main& n" j( K# K  B6 p6 q! E  M3 U" D
Default : Yes. r1 K) i) C2 _' `2 N* K9 I
Forced : No
) k  B9 x) E1 D! L, v9 }
) G+ K/ u4 j8 }

0 r: D# X( V' z  w. LText #1$ r, Y: z; {, Q! I) H
ID : 3
* X3 ^& d2 e3 w+ VFormat : UTF-8
) h& j* L( E6 m9 ~Codec ID : S_TEXT/UTF8
1 z, G8 I8 l; Q5 M6 ]5 d3 l+ uCodec ID/Info : UTF-8 Plain Text
8 s# l% c+ K. O4 q% b- vDuration : 1 h 31 min/ X! u! W1 ]4 ^1 [! z
Bit rate : 3 b/s& @7 J" L: U$ l& k; t; ~
Frame rate : 0.014 FPS! A% s( X) j2 C. E5 r( Z
Count of elements : 79% N' [. J; j) \1 J1 S- e) M! `
Stream size : 2.32 KiB (0%)
. V& l) i& n" m) kTitle : Forced- T! n/ S5 r5 ?* @- n% q
Language : English (US)# K2 r  z- \7 N+ O- _. F" r1 O3 i: t
Default : Yes9 U" |! c' A7 |9 O/ @# @: ^
Forced : Yes
$ J! ]7 w# z9 M6 p
0 k- e5 a3 ]# x. C  o; o$ i

3 @5 @' g) E7 X6 J9 HText #24 {# B9 j5 k4 A& L$ V
ID : 4
4 N, W( Y2 i2 T% U* pFormat : UTF-8
" p) R2 ]! x. I) e0 M+ PCodec ID : S_TEXT/UTF89 Z3 t) {* D: J' ^
Codec ID/Info : UTF-8 Plain Text# D1 W: [* X2 x+ m% p9 s$ g
Duration : 1 h 39 min1 x5 H. O! s- T  S5 ?  _9 w7 \
Bit rate : 56 b/s* g8 g9 X& M0 ^7 z5 c: h. v- S
Frame rate : 0.209 FPS0 ~% x( c, O, f1 [. t& _
Count of elements : 1246. M* `2 s. X) [/ C. D5 i7 `$ q8 i
Stream size : 41.5 KiB (0%)
( c* E) A6 O: n, c; uLanguage : English (US)( V1 W( m$ E) i4 n5 s
Default : No
% ]% W, i0 Z: t: b* y" OForced : No0 J+ h% y) P% {. j! x
. ?0 y% X1 N: b7 P

3 F+ c% ^; y" _# B, ]; I; LText #32 Z. V$ V) [( t9 M0 h' s  `
ID : 5
3 N" n: J2 I) R9 Q4 R+ DFormat : UTF-8
) M6 m$ ?3 e# F8 j0 E/ v& oCodec ID : S_TEXT/UTF8
5 M" e3 K: U- ICodec ID/Info : UTF-8 Plain Text
9 \! A9 h3 y; CDuration : 1 h 44 min
* ?# S) H# k1 L* N  }Bit rate : 63 b/s. h9 Z; t; e9 W) e( F6 v
Frame rate : 0.251 FPS
! p/ X9 ~5 d/ p. r6 ^Count of elements : 15746 f- V2 Q$ W! T
Stream size : 48.4 KiB (0%)* i8 p/ U: A3 c
Title : SDH/ B- K- ~4 Q! x. f, b* d3 y) H* [
Language : English (US)' w3 A8 M9 k& b" X- V4 @- i
Default : No
" K; d9 g. U9 x+ t9 }2 ^Forced : No! i# W. I; `8 m

4 }2 F% b" u. T( a. t. [) B/ [
; C# h8 Y. w+ F! j
Text #35
! }3 A9 g1 n, |, iID : 375 E" W' Z  H! f8 |3 s3 ^( }( f
Format : UTF-8& S$ d4 i6 y5 U$ Z( C. ?4 O' Q
Codec ID : S_TEXT/UTF8) {1 v* p1 J1 T/ D: D) F
Codec ID/Info : UTF-8 Plain Text( {8 x+ p: ~6 O$ o) k0 t
Duration : 1 h 45 min
& i+ _$ w! V+ p9 j- s" pBit rate : 60 b/s
* E6 U) J& ^1 ]! L& JFrame rate : 0.189 FPS
  ]3 L8 ]* `' P- n- l9 ~Count of elements : 1202
! l$ D; @- Y. H# x- ]1 {; [Stream size : 46.8 KiB (0%): O" w0 E  F, @9 J% Z( b
Title : Vietnam$ C7 n+ T  V1 g% \$ i
Language : Vietnamese (VN)- ^4 C# F9 m) W. F8 f6 v3 h
Default : No# W, p$ I" U2 }6 i& |' }
Forced : No
7 q' x* J: M% v5 \+ w! j4 _. X+ r, J8 C8 d0 J" n

; b- f, p% W+ `% R# ~6 f" kText #36" X& C8 r* |$ r$ j5 o
ID : 38
* Z: H/ I- a* `& `Format : UTF-8
/ D7 W0 x3 v- U/ y  O! z5 WCodec ID : S_TEXT/UTF80 k* v# B& m1 n1 [0 j3 T; l
Codec ID/Info : UTF-8 Plain Text
3 B+ |. ?7 r& l& E; J: d; d$ `0 g* tDuration : 1 h 45 min
# [# h+ K  `  P  fBit rate : 46 b/s
: [3 L. I3 K6 n8 C0 S0 NFrame rate : 0.190 FPS
3 O5 X9 z' n0 `# RCount of elements : 1204
# ], j- F- t+ u9 `0 Y0 \Stream size : 36.1 KiB (0%)( P  p$ ^5 V# e# d. q6 L+ Z
Title : Simplified# y3 c* V7 v4 @  y# v
Language : Chinese (Simplied)
) |3 x9 |: o/ [Default : No! g, f: o  T7 c
Forced : No
2 S0 N% ~: R0 h4 ]* V9 B: l1 w7 \% D! w" y- f) ]2 _8 R
( L, o, A9 O0 _, b( a# S! v
Text #378 p/ i$ f5 V+ z8 o- [4 x8 B
ID : 39; U; h1 Y$ ^. I. K/ {. {: q7 V
Format : UTF-8) a& m2 a1 c* `) Z& D8 K6 y
Codec ID : S_TEXT/UTF86 m6 E5 O( ]# q8 x# k) y3 _
Codec ID/Info : UTF-8 Plain Text
) S/ L1 C1 O( n5 t  R7 v1 eDuration : 1 h 45 min
' t# r! O9 e3 n7 T  b  ]4 [Bit rate : 45 b/s, ?6 ^0 `: |) J0 Q: y' i2 a
Frame rate : 0.190 FPS
: a4 _, k3 x) s. J4 x8 P- mCount of elements : 1204: D/ _2 J! C" r) O. l  ?! j' Z
Stream size : 35.0 KiB (0%)
7 M; y$ i* _- e: rTitle : Traditional
) A7 E' Q. W9 DLanguage : Chinese (Traditional)* G* x! R6 Z: w1 v7 V& c' O# v8 P
Default : No9 b5 W6 N+ g* r6 a3 c
Forced : No
6 U* T4 k/ s3 L; h- A" B9 ]1 P( B' k5 D. m9 }  b6 |) C; y/ p

  Q/ Y  T  u" f1 ?7 y* x5 {% NMenu. x" D0 k- N8 w5 |. q6 H
00:00:00.000 : en:Warning/ o" x8 |% z1 s" N4 q6 d4 F
00:00:12.000 : en:Studio Logo2 [7 ^7 O% J: w6 H/ G: m2 D
00:01:00.000 : en:Scene 3
& {' F- f0 a9 D' J' j7 o00:03:02.000 : en:Title Sequence$ n: F% [. k  _- @+ E
00:03:07.000 : en:Scene 5
+ c/ ?- Q! l5 r5 T# T% Q/ W: ]00:06:28.000 : en:Scene 6
6 ~. A2 s$ m0 J  _+ ^00:10:24.000 : en:Scene 7
* Q4 J; E. X/ {! A8 l7 t3 M" p5 R00:14:15.000 : en:Scene 8
3 Z, Z  C# ?$ x" X6 A3 }00:17:14.000 : en:Scene 99 {5 K, ^7 L% ^" A  P
00:20:45.000 : en:Scene 10
" _! w$ Q8 t: ~0 F1 G9 N! r/ Q6 z00:25:47.000 : en:Scene 11. q6 L: G2 W  i8 ^- H$ W. [/ a
00:30:40.000 : en:Scene 12
7 Q2 P; A5 z& g00:35:31.000 : en:Scene 13
, l) Z. |# c9 a00:38:56.000 : en:Scene 140 x. V- Q6 z6 z8 l. G  G: |
00:41:56.000 : en:Scene 15
) X: Z8 F3 o, }8 s+ R8 v00:46:45.000 : en:Scene 16
; W5 c7 ~2 ]* Q5 O$ K00:50:56.000 : en:Scene 17
% T8 T6 D8 R, a5 U- Q# a00:54:09.000 : en:Scene 18
0 @5 M  i; n6 O" M& s00:58:26.000 : en:Scene 199 n: C4 \  s- q( e% t
01:02:47.000 : en:Scene 20
$ m* ~5 q$ Q% d% `2 M  b' n01:05:01.000 : en:Scene 216 {7 |% S' l- B$ c. v
01:09:28.000 : en:Scene 22; u: Q+ ]0 A" K( @4 S
01:12:09.000 : en:Scene 23$ O3 W: F6 p" u! ^
01:16:09.000 : en:Scene 24
8 V4 x: b7 y+ f* D" K/ U* ?! {01:20:12.000 : en:Scene 25
/ {) M! Q2 S. p# B1 p- A3 q01:24:55.000 : en:Scene 26. |& N4 n+ o* K6 `4 _
01:27:21.000 : en:Scene 27
( K* W! G! o# U01:33:24.000 : en:Scene 28, e) Y( y4 V0 n+ u6 k0 [) ]5 `6 v
01:36:31.000 : en:Scene 29
# `5 P& ~1 L* V5 r+ _01:39:12.000 : en:Scene 30
' y' ~$ X' x* C01:41:30.000 : en:Scene 31. n. T& Z6 X, h* t, Q9 G9 J3 E
01:41:39.000 : en:End Credits
' k4 f! t6 _$ _: d% S
野猫4K Wildcat.2022.2160p.AMZN.WEB-DL.x265.10bit.HDR10Plus.DDP5.1-4K纪录片电影资源下载
' H0 a2 I- i# ~  F5 s
6 p+ \. f0 @! Q7 d' Y7 ~- ^' C6 O野猫4K Wildcat.2022.2160p.AMZN.WEB-DL.x265.10bit.HDR10Plus.DDP5.1【简繁中字】【HDR 11.11 GB】3 O$ S) a2 q% Q8 y

野猫4K Wildcat.2022.2160p.AMZN.WEB-DL.x265.10bit.HDR10Plus.DDP5.1-FLUX.torrent ( 14.54 KB )

6 ~, U( i$ m* Q# w
, u9 Z* d& y( U- i( L6 m; c
0 W3 u5 p2 l( D
4 O- |  O* N, e
登录 发布 快速回复 返回顶部 返回列表