开启辅助访问
 找回密码
 立即注册

喵星人的奇思妙想4K Inside.the.Mind.of.a.Cat.2022.2160p.NF.WEB-DL.x265.10bit.HDR.DDP5.1-4K电影

#4k记录视频#时间:2023-04-28 阅读:419 回复:0
1 n; P0 w+ ~/ K) R1 h
180654vgwcqg2r6px445g6.jpg.jpg & y3 l& {* _* J$ ~( \
. s7 v0 i+ M4 S& _
- i% F! n: J; R2 ^- v
简       介

6 t! Z4 I: C5 w' I0 n1 k6 ^, {  S5 P8 \% C: T7 O
       猫专家深入猫的大脑。
9 X0 l) W7 J- I0 d3 S
, Z+ S5 ?# t# {" p8 P影片参数
喵星人的奇思妙想4K Inside.the.Mind.of.a.Cat.2022.2160p.NF.WEB-DL.x265.10bit.HDR.DDP5.1-信息
, o$ _* ]  F2 o* C8 bVideo' B# q4 A7 C& a, y
ID : 1! w$ e' p: B- R/ L6 M0 F
Format : HEVC
" }- f% I1 W& Z+ [8 GFormat/Info : High Efficiency Video Coding3 y) m( F7 T* b2 W1 b+ W+ A7 W
Format profile : Main 10@L5@Main
' `2 q9 x, F5 L1 ]/ i0 ^HDR format : SMPTE ST 2086, HDR10 compatible
+ y! |, z& ], f8 p. V# C2 gCodec ID : V_MPEGH/ISO/HEVC5 i+ K; F' p+ W+ _4 {& {
Duration : 1 h 6 min' {( |) R7 i7 E; G4 e: c2 A
Bit rate : 17.0 Mb/s5 [; Q& f3 _. _. F. I
Width : 3 840 pixels
, u) c0 K* u, u& l1 s+ H# fHeight : 2 160 pixels* _" g/ B& Y( S2 x, x
Display aspect ratio : 16:9
* b) C* F4 I8 O1 g& a! d$ SFrame rate mode : Constant
( d$ e' G7 y6 y  P( hFrame rate : 23.976 (24000/1001) FPS2 x, w! v5 k  Y" Q5 ^
Color space : YUV. c( d% G) B% i" l- O& c# o  b
Chroma subsampling : 4:2:0 (Type 2)- O  s5 \& ^* Y) u+ Y+ l" w4 e
Bit depth : 10 bits
9 c, T5 [5 w1 RBits/(Pixel*Frame) : 0.085
# {  A& E; L( n  j" d. bStream size : 7.94 GiB (96%)
0 E4 X1 ^% ]" E, `7 B$ i6 L' [Language : English, o$ Q# S5 d- @) m' }6 ~
Default : Yes
+ d( k! p- H/ G! DForced : No
! W5 m4 G5 W3 N# \9 Q! Z* uColor range : Limited( L! h8 Z) T' o
Color primaries : BT.2020/ [/ H* u; k" N! S
Transfer characteristics : PQ
; L5 q  w% O& o& `, I8 mMatrix coefficients : BT.2020 non-constant8 P/ O) w/ K! @5 B
Mastering display color primaries : Display P3, b9 t- e: i7 C# `# P
Mastering display luminance : min: 0.0001 cd/m2, max: 1000 cd/m2
& ]0 ]2 E9 A5 l0 XMaximum Content Light Level : 756 cd/m2
7 Z: d1 s$ R* u9 l) T, Z7 MMaximum Frame-Average Light Level : 112 cd/m20 ~7 h  _& E! [2 U: h4 p5 T, k
9 q5 y2 d9 S4 m- I

$ w8 I& u9 v% Z* cAudio
. o5 T+ D7 H+ bID : 2
7 g9 U; h. [7 fFormat : E-AC-3
; P4 ^8 z$ W  g$ Z. @$ C1 GFormat/Info : Enhanced AC-3
7 s+ c+ y- e; m5 j: j* g* h. zCommercial name : Dolby Digital Plus
: e- u' p" w! L0 f  ZCodec ID : A_EAC3
$ E; _  R2 S/ a- N2 D* ADuration : 1 h 7 min
+ {/ x3 A$ H# F. z( KBit rate mode : Constant
3 _: W; q: t0 J1 z! m3 G7 v' VBit rate : 640 kb/s
9 H4 G2 P- _5 a, b6 `$ m; ~' k" rChannel(s) : 6 channels# a% X' n: n+ }0 ^
Channel layout : L R C LFE Ls Rs1 o2 k: t! w6 C1 m' q; K
Sampling rate : 48.0 kHz, t7 m$ `: b  q2 T9 v
Frame rate : 31.250 FPS (1536 SPF)
( _1 |# \' n6 |% G5 Q- P5 y, L, KCompression mode : Lossy
% P4 @! v# o' d+ p9 e$ M$ ]9 cStream size : 311 MiB (4%)3 x4 _* X+ m6 o5 L" |- r
Language : English; w) q% G; Q2 p  W2 E0 f
Service kind : Complete Main
: x# C3 i/ R3 L  NDefault : Yes
! X' S, L1 y' a8 z+ }6 r$ PForced : No
; A/ @* q% c4 [7 i6 M/ n! Y' ]7 B" U8 e2 [) f+ o7 }& q

8 P* y. @% h5 [/ r1 h* LText #16 a, c& G" e. V! v
ID : 3$ [/ k' N- O8 U% z7 a% X! a
Format : UTF-8% k5 J$ Y3 F0 V8 }
Codec ID : S_TEXT/UTF8
' j9 d, e+ s8 I/ c' UCodec ID/Info : UTF-8 Plain Text' o, j/ G- _5 Q/ a
Duration : 53 min 12 s' s7 {6 F( s& |2 T7 b. ^6 ^0 J
Bit rate : 6 b/s
! x( k! U& H8 [8 X. x; dFrame rate : 0.019 FPS
, R# g; Q8 |9 H: r2 pCount of elements : 612 A) Q0 O1 L+ Q2 V1 E& A& W
Stream size : 2.65 KiB (0%)
$ V7 r. O5 R, k( PTitle : Forced
2 Q. n8 Y7 D, u2 i1 O9 p/ T4 S5 PLanguage : English9 o" B4 B: R& d
Default : Yes
& }$ l% W: n6 }8 B  N, W0 UForced : Yes! j" L0 Y! s6 q1 H0 w1 F7 Y+ W/ K

' {2 i4 P) N( \- P7 W

; `5 Z/ K) U) |$ X' n" hText #2; z) [( i1 b6 v) l) z
ID : 4
$ V' x/ j, o& u6 O* S$ E. X9 b5 XFormat : UTF-84 d2 Y5 Q( M3 t$ e% }& t
Codec ID : S_TEXT/UTF80 Q1 y6 c5 E3 [; c5 j2 m4 m
Codec ID/Info : UTF-8 Plain Text
2 Q& s. e" D0 l- |# }Duration : 1 h 6 min
* _( l0 i( G1 U( o* V6 Z5 tBit rate : 93 b/s
  E$ s( y& P9 @1 r- EFrame rate : 0.269 FPS2 V  N/ L2 S! k
Count of elements : 1074
$ n! s# a4 f% j: i9 u$ tStream size : 45.4 KiB (0%)- n, J5 v+ a0 S$ J0 U& a; D
Title : SDH
% |# D% E% x3 f$ ]2 D! \# |7 HLanguage : English" T: s# }  t9 D& w/ S+ Z+ \/ C
Default : No
( Z; \4 L& K  ?Forced : No! e8 h) U) x" o3 o" k

  b5 u; P. G5 p' G; t$ z
, L5 c' O+ ^% U- L. }( m
Text #3
3 Q; y6 b; w& x) H5 cID : 54 U( M4 w9 n- o0 \  B) Q; f5 r4 }
Format : UTF-8# P5 t2 n9 ]) N( W. i9 G
Codec ID : S_TEXT/UTF8% R! C! W: [0 t4 S( D# T
Codec ID/Info : UTF-8 Plain Text
" r/ K+ L7 J+ Z8 x: z7 VDuration : 1 h 6 min6 {1 t+ r$ m1 z0 U# G
Bit rate : 135 b/s
/ h, F% T9 b8 h% LFrame rate : 0.233 FPS. Q: a7 `2 _" W+ \4 h* d' Z
Count of elements : 930! t- N' e& S1 r. T3 Z! U
Stream size : 66.3 KiB (0%)
. k; v# c8 U! v" dLanguage : Arabic- r7 ^" f4 I2 v. z8 J
Default : No) |( e; O; Z, [# {1 |( w' V
Forced : No& _  F% x% Y& F, ~4 N4 w. o

6 Y3 C; ?" x5 d5 ]- d  i$ u
# [: s8 ]& w6 A& W. E, s
Text #32/ f+ r6 X' D) h" e$ Y' Z
ID : 34
) R5 ~' a) M  E: ~7 r& k+ BFormat : UTF-80 O5 V+ b  z6 [2 j
Codec ID : S_TEXT/UTF8$ [! M! N7 z/ K* ~( O  ?! h
Codec ID/Info : UTF-8 Plain Text6 g; Q; G/ T3 k( N( T0 }8 [% J
Duration : 1 h 6 min
2 d, C  ]4 A) [6 s% i7 k& XBit rate : 75 b/s
4 N/ |* {* D9 \3 |! I- S- JFrame rate : 0.228 FPS
: h7 C+ u" R2 M" B! I' l9 e7 wCount of elements : 909
0 b8 S: a7 H/ w5 EStream size : 36.8 KiB (0%); c' P1 Z4 |1 R
Title : Simplified: x3 I3 n8 L8 m! x3 ?
Language : Chinese (Simplied)
! ?% o7 `) S- x; f8 c! xDefault : No9 M0 p+ A+ T( U5 s9 w4 `$ O, Z2 x
Forced : No% n& j# V) {; G' r

7 u  U* Y. ?3 F) \/ g! t% v$ \' \

/ R! s% K- C) U3 L- mText #33/ k+ E3 f$ r" C
ID : 35
. ]0 D' {* w! ]! \! r5 hFormat : UTF-80 H+ f9 @+ C( \6 y8 x
Codec ID : S_TEXT/UTF8( r+ j$ l+ l* r
Codec ID/Info : UTF-8 Plain Text
0 A' s2 ]# ?) |- eDuration : 1 h 6 min/ h- g7 _4 R0 H# s" C% o; v
Bit rate : 73 b/s
3 V- I4 c- `' ?9 E4 d6 x; z& |) PFrame rate : 0.229 FPS
* F: O. I) d  ?2 ^* d" J5 tCount of elements : 915
- u7 M- Y/ @% A  J8 R  s$ Q/ d1 SStream size : 35.9 KiB (0%)! C* W/ f3 R+ `! U: Y9 a7 _! Z5 `6 N
Title : Traditional( A8 ~% w4 K. R& l; |" F3 z
Language : Chinese (Traditional)
" O( @; I( D7 L$ dDefault : No
' }1 G9 Y& G4 e" g& PForced : No
3 ?& w: i$ y9 m* {. w) p
/ M) g1 G0 t, ~0 C, h
喵星人的奇思妙想4K Inside.the.Mind.of.a.Cat.2022.2160p.NF.WEB-DL.x265.10bit.HDR.DDP5.1-4K电影下载1 s' }" x% ]2 B* _; t) W5 e* A( Y

2 L1 J$ D; l, b& R; j喵星人的奇思妙想4K Inside.the.Mind.of.a.Cat.2022.2160p.NF.WEB-DL.x265.10bit.HDR.DDP5.1【简繁中字】【HDR  8.24 GB】
: e- \) G6 i" V9 i/ c$ `

喵星人的奇思妙想4K.Inside.the.Mind.of.a.Cat.2022.2160p.NF.WEB-DL.x265.10bit.HDR.DDP5.1-KKKK.torrent ( 21.28 KB )


1 T- M+ u) t- d5 \; Y
0 B# ^" `) R# L) F喵星人的奇思妙想4K.Inside.the.Mind.of.a.Cat.2022.2160p.NF.WEB-DL.DDP5.1.DV.MKV.x265【简繁中字】【杜比视界  9.41 GB】* C5 l9 x# h* K5 r

喵星人的奇思妙想4K.Inside.the.Mind.of.a.Cat.2022.2160p.NF.WEB-DL.DDP5.1.DV.MKV.x265-NOGRP.torrent ( 24.18 KB )


# r5 ]4 ]0 K  @% N4 _9 W
' u* H( }2 p: k& h/ G8 ~, `喵星人的奇思妙想4K.Inside.the.Mind.of.a.Cat.2022.2160p.NF.WEB-DL.DDP5.1.DV.MP4.x265【简繁中字】【杜比视界  9.41 GB】
2 C. u- B# A. B' e) s

喵星人的奇思妙想4K.Inside.the.Mind.of.a.Cat.2022.2160p.NF.WEB-DL.DDP5.1.DV.MP4.x265-DVSUX.torrent ( 24.19 KB )

* B( i$ j. s: u. y9 ]% e
- f9 @5 m% h+ K6 s6 J2 v% i
# T& Y% B, J, |9 T  k5 x. `

8 J; M' X9 E% U* I5 w  ]# N1 S" e! ?+ N
登录 发布 快速回复 返回顶部 返回列表