开启辅助访问
 找回密码
 立即注册

救赎之队 / 救赎之队:2008奥运男篮梦(港/台)/救赎之队:2008美国男篮奥运梦4k.The.Redeem.Team.2022.2160p.NF.WEB-DL.x265.10bit.HDR.DDP5.1.Atmos-纪录片

#4k记录视频#时间:2023-04-28 阅读:425 回复:0
5 z$ O8 y# O' h% U# l
144149v28f3qannn3v23qh.jpg.jpg
) p6 L: J3 I8 v
- d: Y* a3 p8 H" t! r9 P: B7 k) b( j( E简       介! X6 a$ S+ c# @9 X

# w/ b. z; d% q% M9 v, g  《救赎之队:2008 美国男篮奥运梦》收录了前所未有的奥运片段和幕后花絮,讲述了继美国男篮在四年前的雅典奥运会上失利后,重征 2008 年北京奥运会的历程。这部纪录片生动刻画了球队如何培养默契,并对德维恩·韦德、勒布朗·詹姆斯、迈克·克日泽夫斯基(K 教练)等运动员和教练进行了深入访谈,他们回顾了“救赎之队”如何为美国篮球树立了新标准。! N5 {9 [4 w/ j2 G8 C% |: z3 X7 s7 [
- x8 q  P+ i0 Y

* m1 x9 Y% d8 P( @- W, a+ L1 c7 @影片参数
/ Z& Z2 o. b( c
东山再起梦之队 / 救赎之队 / 救赎之队:2008奥运男篮梦(港/台)/救赎之队:2008美国男篮奥运梦4k.The.Redeem.Team.2022.2160p.NF.WEB-DL.x265.10bit.HDR.DDP5.1.Atmos-纪录片信息
) S4 w) g. @' L8 H; ?, S! B) d3 eVideo
/ D9 ~; ~/ j4 ]& C) \ID : 1
  P, F& U6 c4 U% GFormat : HEVC
7 F- a! o1 V- o: V# o* wFormat/Info : High Efficiency Video Coding; m0 n0 Z; V) h; \" ^
Format profile : Main 10@L5@Main
! S4 A, b  U3 xHDR format : Dolby Vision, Version 1.0, dvhe.08.07, BL+RPU, HDR10 compatible / SMPTE ST 2086, HDR10 compatible
6 ^6 L" q+ c/ X8 i8 wCodec ID : V_MPEGH/ISO/HEVC
  V6 s/ @& }+ j1 P2 T( DDuration : 1 h 36 min4 c& [! y( d; M" \
Bit rate : 11.0 Mb/s) \* o/ f. p9 n% V0 g0 `5 Z% M
Width : 3 840 pixels# g' w! `4 G, b6 n1 q2 K
Height : 2 160 pixels0 E' \, f/ g( l' ^: ?+ a
Display aspect ratio : 16:9
3 U7 f: y6 G$ |2 b, F: I' tFrame rate mode : Constant
( |# |; J7 I4 q- f, _: r/ KFrame rate : 25.000 FPS, ^+ s+ n. A7 `3 _& e) t# q9 b
Color space : YUV
. }, S6 L/ p. f# ], e" y, eChroma subsampling : 4:2:0 (Type 2)8 M3 ~' J, q* Z
Bit depth : 10 bits# z/ R$ J% a2 s8 d
Bits/(Pixel*Frame) : 0.053
* J- b7 f- X- ~4 L: iStream size : 7.46 GiB (93%)+ d, W9 n* C6 z' L, i: I/ I
Language : English
" m. o4 U7 o/ V3 N6 _# Z9 F2 ZDefault : Yes- w5 J* o9 X' Q1 f) j
Forced : No+ i6 F4 T5 H5 \* }
Color range : Limited
9 ]  q( J: C7 D/ rColor primaries : BT.2020
$ j; O# W% e3 `" n- o* ^' k# vTransfer characteristics : PQ8 V$ G0 s- Q+ N; h/ N
Matrix coefficients : BT.2020 non-constant+ o* g9 W* \4 j7 O. a/ q
Mastering display color primaries : Display P39 B9 M- l1 ^: f! V" ]( V: L
Mastering display luminance : min: 0.0001 cd/m2, max: 1000 cd/m21 ?: ]* O9 s: x8 e: A
Maximum Content Light Level : 996 cd/m2: w3 ^  t$ d& `, l0 n$ D
Maximum Frame-Average Light Level : 211 cd/m27 |& }# d2 d* q! Z  d* S8 m
4 j4 w. i+ w4 p
. V7 [* Z) a1 {& }6 o
Audio" L, a. F' o7 E# E3 n
ID : 25 X: D: D' U7 h8 E3 Z
Format : E-AC-3 JOC1 \1 O1 k$ J4 M! R3 e1 X) R
Format/Info : Enhanced AC-3 with Joint Object Coding
" s  b$ H0 M4 M# \Commercial name : Dolby Digital Plus with Dolby Atmos- ?. m  ~. K9 p& d% i
Codec ID : A_EAC3
( {; ~! R- L& ]& R3 I# L- {Duration : 1 h 38 min0 n; d. e+ S9 z6 }0 F3 D
Bit rate mode : Constant) K9 S: t6 J7 K  G
Bit rate : 768 kb/s
+ Z, I& t, M+ m. D2 V1 yChannel(s) : 6 channels
2 t5 N( t* h3 H2 j  ]+ |8 WChannel layout : L R C LFE Ls Rs
3 j# B, n" Q; WSampling rate : 48.0 kHz
1 A/ g5 G: u, g. W3 ^* L4 i9 ~Frame rate : 31.250 FPS (1536 SPF)& \* a. N% z6 q) U: N6 \3 z
Compression mode : Lossy( C% F* Z. M  b
Stream size : 539 MiB (7%). Q) l# n6 N; O/ ^
Language : English
7 n  E) H( W' V' l% PService kind : Complete Main- N0 U$ r* E) ^
Default : Yes& v) K& z* I2 u0 C2 T+ N0 @
Forced : No
) N4 v# A6 q+ h" _& Q3 i8 rComplexity index : 16: p* d: N, d3 V3 u
Number of dynamic objects : 15- g' a  n* i) H- y5 r2 H) N. U
Bed channel count : 1 channel
: ?% P( D% \0 x1 F% y7 SBed channel configuration : LFE  S( ^! Y% I& f5 C4 Z& [5 p* R
. o7 W  ?0 ?+ R8 t( G7 G5 Z% [1 U

+ Q$ m" n, }: u% \Text #34- d- D: o* T3 R2 g
ID : 36
6 `& g" Z: S! E5 XFormat : UTF-8
# z- f. f+ J4 |: OCodec ID : S_TEXT/UTF8
; T1 {; W" h# g, u7 }. dCodec ID/Info : UTF-8 Plain Text' T8 a# x& Z  ?
Duration : 1 h 36 min
9 f+ K" p+ ^" N3 jBit rate : 255 b/s# t9 O  {% Z! d4 n9 j
Frame rate : 0.297 FPS+ O( O. F+ r, q6 x
Count of elements : 1713
4 A, f% S, j9 ^- ^4 @  H+ _+ b+ ?Stream size : 180 KiB (0%)
/ L, P1 n, v6 h) T  ^Language : Thai/ f4 t: G, a2 a
Default : No( W& w$ @5 V$ e9 |
Forced : No
; c. Z5 ~; F/ _; ?
/ _8 i( |, [, u# ^8 t8 K

, m; t3 _1 K; b' `Text #35
7 z7 G- F- V2 I5 c# O- v/ e- _7 ^ID : 37
" K; h' J0 d2 ^+ }' p/ `4 p' s6 P8 qFormat : UTF-8
4 n0 c. Y5 h# k' @4 H6 ~% ~Codec ID : S_TEXT/UTF8
" @6 E8 ^" c- ^' G; C/ O3 B- BCodec ID/Info : UTF-8 Plain Text" S2 R8 \2 t- q# _7 a0 _! q
Duration : 1 h 36 min
4 R2 v6 @1 C! S8 Z7 LBit rate : 95 b/s
. t- v; B) x% Y, q( QFrame rate : 0.283 FPS' i  d" H+ ^. O- R4 U- c
Count of elements : 1637
8 B5 o: h1 n( E, B) Z1 B. C( e! v2 FStream size : 67.1 KiB (0%)
/ @+ X& |. y3 T# b- ^: c: lLanguage : Turkish
7 U  p4 q5 P( l1 BDefault : No) ]: c" t4 U( I) @2 t
Forced : No  I8 L$ Q7 Q/ ?0 Q: Y

  `! [5 r4 M' X* R

4 S. t, c) H, {' o) @, K. R) BText #36
7 K0 l9 F; U: r/ |ID : 38
/ h' M1 i3 |4 j- BFormat : UTF-8
4 ~2 C, G8 b0 e5 @- m! j4 U% w+ [8 \Codec ID : S_TEXT/UTF8* f. U, D2 Z6 G2 T# ]/ q% c1 Y% ^% E6 N$ V
Codec ID/Info : UTF-8 Plain Text5 Z5 s9 h: O* \) _' w$ p9 g7 M
Duration : 1 h 36 min
* L2 h# P5 X) _- `Bit rate : 163 b/s, t/ G5 {5 n4 h
Frame rate : 0.288 FPS
* I% A0 ~+ |7 z# |4 k7 B8 GCount of elements : 1667
5 J3 ^/ K; _4 B5 {9 O, S0 ^Stream size : 115 KiB (0%)3 b9 h5 Z1 ?8 [! Z, _0 O7 K( ^
Language : Ukrainian' ]. `$ ^8 {5 g/ V
Default : No
% i! @2 w% R. |6 E3 t9 u- ^8 lForced : No
$ [& X7 H6 u2 x3 k/ t$ g$ i" s8 V& z, F& h- b
# T/ e# _( D! L8 p& C  L$ v
Text #37
1 \" j0 n( M1 j1 K3 GID : 39
1 Y8 J( a6 R. V- y+ BFormat : UTF-8
+ C* ^2 {9 d6 M- T8 p" W: W! ]3 fCodec ID : S_TEXT/UTF8% z8 K5 U% {0 L) z9 [/ W9 x  g
Codec ID/Info : UTF-8 Plain Text
1 ^7 K% v7 u. JDuration : 1 h 36 min
0 i' V( ]+ X. S5 a3 q0 g- ?% J6 `3 ZBit rate : 135 b/s* s+ e6 N. s/ I
Frame rate : 0.287 FPS
5 H+ ?8 U" f4 ?Count of elements : 1659
. u- K7 i, X" x1 _4 qStream size : 95.9 KiB (0%)
  `. b; l  s9 l( vLanguage : Vietnamese
% O: h$ S' Q9 N9 E7 p" Z3 lDefault : No
4 s" @, Z! W' E# xForced : No( e' Y3 |. k$ h* r0 r: _

5 Z8 q( |3 U. Y# h* F

1 i6 a# f# r/ gText #389 T& i$ u. n) Z9 A6 O
ID : 40! P7 i. J- o2 I+ U" x( H! N8 W3 o
Format : UTF-8, {7 U: {, D) s9 n. s8 e
Codec ID : S_TEXT/UTF86 l$ q  K7 }5 U* D
Codec ID/Info : UTF-8 Plain Text
4 m+ b& [- n& m% hDuration : 1 h 36 min
: e/ |8 k' g: |" |& j2 K; H# sBit rate : 84 b/s
' @' F! }9 O: j4 j( q% ?Frame rate : 0.290 FPS
; _. ^% n5 {- d) L! a+ nCount of elements : 1678  A; v9 N$ c8 ?0 K( F, R
Stream size : 59.9 KiB (0%)% I0 z0 c/ R' m
Title : Simplified
: w; @. `. h- h2 \' b% F" U8 N1 Y4 hLanguage : Chinese (Simplied)3 v- O& H  Z+ }
Default : No1 h8 s+ P* p5 ^0 V& {" C5 s, z
Forced : No  F5 ]! \$ t% L7 T% |" V5 I
% K& o- H8 R4 ?; t% z
% I3 A7 Y$ E  K; u; C
Text #39
- J6 `8 O0 o9 Q6 N$ XID : 41; n; d3 f* W  I! `) M0 k
Format : UTF-85 S; p: N  L3 b: Q8 g- B
Codec ID : S_TEXT/UTF8- O+ O1 D$ x2 ?2 u8 D" A2 ?$ `2 I& j
Codec ID/Info : UTF-8 Plain Text8 ]: }2 p3 y  ^9 b
Duration : 1 h 36 min' @7 I: W" u3 F$ C
Bit rate : 94 b/s- y5 V) V' f5 X
Frame rate : 0.294 FPS
$ h6 E; i4 i9 ICount of elements : 1699
4 W- S1 m2 A) f, Y! `5 EStream size : 66.6 KiB (0%)% X% E1 u( E3 m
Title : Traditional
' i+ D8 A1 o% N- I' `3 z4 A$ e' ~Language : Chinese (Traditional)
1 S/ k0 b& a' M! {Default : No
- ~6 j% g1 Q! \Forced : No
+ B/ f( }. @% k, h/ q' Z/ H  @$ Y2 ?4 f) C; n+ f9 k% u* F2 x

) Q. l- L- h2 QMenu% e) d2 S, `, U1 o% J7 m2 e
01:34:25.000 : en:End Credits

  _! U* `$ n5 S( T: _3 |" F0 r$ [8 r1 T, }0 O  B0 E* T& u. l
$ |; X0 q7 ^/ P# Z; `; g
- ~& E0 M2 [" k, R$ W
东山再起梦之队 / 救赎之队 / 救赎之队:2008奥运男篮梦(港/台)/救赎之队:2008美国男篮奥运梦4k.The.Redeem.Team.2022.2160p.NF.WEB-DL.x265.10bit.HDR.DDP5.1.Atmos-纪录片下载
2 A& [. i7 a( s& n9 a3 f
) B# ^% Q. s3 p救赎之队:2008美国男篮奥运梦4k.The.Redeem.Team.2022.2160p.NF.WEB-DL.x265.10bit.HDR.DDP5.1.Atmos-简繁中字【7.99 GB】) P$ m, B5 B- q( ^1 G$ y

救赎之队:2008美国男篮奥运梦4k.The.Redeem.Team.2022.2160p.NF.WEB-DL.x265.10bit.HDR.DDP5.1.Atmos-COPiUM.torrent ( 20.64 KB )


2 p8 E; O$ \; }; j
, |$ f7 V; Q$ A; K& z/ y救赎之队:2008美国男篮奥运梦4k.The.Redeem.Team.2022.2160p.NF.WEB-DL.x265.10bit.SDR.DDP5.1.Atmos-简繁中字【8.59 GB】/ G9 ]& l" f: w$ c" h

救赎之队:2008美国男篮奥运梦4k.The.Redeem.Team.2022.2160p.NF.WEB-DL.x265.10bit.SDR.DDP5.1.Atmos-COPiUM.torrent ( 22.13 KB )

1 v. U& p$ q* l
5 ~0 c4 V( d( G
救赎之队:2008美国男篮奥运梦4k.The.Redeem.Team.2022.2160p.NF.WEB-DL.DDP5.1.Atmos.DV.MP4.x265-简繁中字【杜比视界】【13.42 GB】) m3 @# D- c2 Q& E. J6 Z

救赎之队:2008美国男篮奥运梦4k.The.Redeem.Team.2022.2160p.NF.WEB-DL.DDP5.1.Atmos.DV.MP4.x265-DVSUX.torrent ( 17.43 KB )

1 s& \1 _) [- C- {# x% l/ X; e9 H7 a: M

" y" k" r: i) C# U4 @救赎之队:2008美国男篮奥运梦4k.The.Redeem.Team.2022.2160p.NF.WEB-DL.DDP5.1.Atmos.DV.MKV.x265-简繁中字【杜比视界】【13.42 GB】+ Y6 i1 G& a' }9 y

救赎之队:2008美国男篮奥运梦4k.The.Redeem.Team.2022.2160p.NF.WEB-DL.DDP5.1.Atmos.DV.MKV.x265-OPiUM.torrent ( 17.43 KB )

- l* t# c+ ^$ F& X

0 |9 l6 n+ i7 B- D- v* T5 h; c
' ]% b9 t8 U5 T) L: V1 L( E
6 i, ]+ a' Z5 M* U) s- X0 L5 m  c+ o1 W; G6 k1 {/ @7 F
登录 发布 快速回复 返回顶部 返回列表