开启辅助访问
 找回密码
 立即注册

老罗拔唐尼:自成一格 / 老爸/罗伯特·唐尼:自成一格4k.Sr.2022.2160p.NF.WEB-DL.x265.10bit.SDR.DDP5.1-电影

#4k记录视频#时间:2023-04-28 阅读:489 回复:0

. a9 ?! y) P, {9 s0 V 151652r460jabwmew6bbaw.jpg.jpg " ]1 b  v* [4 P: Q7 [

5 k9 H* _3 n) _7 @1 p: y. M+ L* J* j( R/ t0 M9 \
简       介

7 X1 O! i  Y9 y9 d4 A
$ e- Y, ?' o  u& F; l       就像父亲。就像儿子。就像其他人一样。《老》是对特立独行的电影制作人罗伯特·唐尼(Robert Downey Sr.)的生活和职业的一幅可爱而不敬的描绘,很快就转变为对艺术、死亡和治疗代际功能障碍的沉思。1 y. K( D, {0 w1 E

7 _5 Z8 d0 U+ W0 k影片参数
老罗拔唐尼:自成一格 / 老爸/罗伯特·唐尼:自成一格4k.Sr.2022.2160p.NF.WEB-DL.x265.10bit.SDR.DDP5.1-电影信息! ]( [2 X' C% E8 c. Y
Video: D- i, J" p: `9 ^
ID : 1+ X+ r, a& ]  Y
Format : HEVC
* x* ^- a4 q1 V5 |. [; H( EFormat/Info : High Efficiency Video Coding: O2 {9 W4 w/ |  `* {3 ]' T4 l9 L
Format profile : Main 10@L5@Main
, }9 u0 n! A$ w$ b, @9 R1 Y0 ~Codec ID : V_MPEGH/ISO/HEVC% N$ o9 |* Q- Q' T
Duration : 1 h 29 min* K3 F+ n; q1 p5 Q- ~
Bit rate : 12.1 Mb/s9 P) r' W, \6 C1 I
Width : 3 840 pixels
6 {' x% S* ]' L7 Q3 MHeight : 2 160 pixels3 x) Q5 R- B0 j; k3 b/ q
Display aspect ratio : 16:96 ^8 A1 @* y( `% Q, ?
Frame rate mode : Constant4 S( I1 ^, p2 K( d
Frame rate : 23.976 (24000/1001) FPS, L' L2 J7 b- P$ y1 t$ A& v
Color space : YUV# n( S5 S% s( |: J* F6 F( y6 n! o
Chroma subsampling : 4:2:0$ n$ `. P- R  n$ _8 b& w
Bit depth : 10 bits3 |# z4 {. P! l# V
Bits/(Pixel*Frame) : 0.061
6 q) p  ~7 u5 c3 E) W  uStream size : 7.55 GiB (95%)/ _0 ^6 R5 G5 E
Language : English
9 Q5 F5 U# Z8 l) a* vDefault : Yes2 L  S7 M" [, A) c3 x# [6 T& n" g
Forced : No% V2 E- ~0 z6 i$ W
Color range : Limited& E" n3 I5 ]/ x  ?1 n! A% \* _
Color primaries : BT.709
0 H. C5 _6 l% z0 X& x) w) jTransfer characteristics : BT.7093 B: c( W2 A; M7 _% u! N1 Y  P6 R
Matrix coefficients : BT.709
; i7 R6 \  t3 n. |1 P: x0 n' k. Y( L9 u! F  |/ j" E, J1 t& K. g

! V" P' b+ k# w. L1 xAudio' s$ v5 Z; T# }9 C$ T( w$ j8 j
ID : 2
* @& e" J  X- Q7 {1 ~Format : E-AC-3% A% }! }4 g$ P. J- i( S
Format/Info : Enhanced AC-3
9 j3 t3 X6 r( |1 ~) v9 K# d  Q# oCommercial name : Dolby Digital Plus
+ J: L, `) c! s) kCodec ID : A_EAC3
, w% }- S) i! ~2 g0 PDuration : 1 h 29 min+ Y. u7 N: `1 c1 L1 @
Bit rate mode : Constant
$ ?  k( ^$ V, T0 S: WBit rate : 640 kb/s1 _* r7 q* J9 S0 Q  G" y7 F! m' n0 e0 P
Channel(s) : 6 channels
" G5 K/ ]- [( Y1 d. h& TChannel layout : L R C LFE Ls Rs
; k9 G/ C' D4 {' KSampling rate : 48.0 kHz# }1 W/ v6 O0 a3 E- C$ o3 d4 h
Frame rate : 31.250 FPS (1536 SPF)
1 z2 g, x- Y: a+ D  ?Compression mode : Lossy
0 F% g: H  n! g- Z- e$ E) }; z; lStream size : 409 MiB (5%)% R; N. w6 B, K9 u$ g
Language : English
7 [" b  |* c+ a1 x6 U* o& zService kind : Complete Main
1 C& E" F9 A" P8 ]2 F5 z$ wDefault : Yes
* G8 Z2 U9 t. `7 w! j: i( [Forced : No6 U  ]6 |' S( v6 {8 \- N1 M! ~! T
: O: D) f& F+ u/ S

. N* X# e( `3 iText #30  k# G& |- H6 [4 s1 }
ID : 323 f& u' t- [# Q9 [. L0 S9 U
Format : UTF-8' k5 `( |6 d- K$ t/ i- m
Codec ID : S_TEXT/UTF8' ^/ {: w0 s2 w2 e
Codec ID/Info : UTF-8 Plain Text' z9 b) b+ [/ z
Duration : 1 h 29 min4 c$ z( F1 j0 I8 S+ \: `
Bit rate : 183 b/s! `- t/ P9 m8 U, f
Frame rate : 0.265 FPS3 O# a! D* Y& h$ @
Count of elements : 14159 G& F- t: E4 H/ W5 l! I
Stream size : 120 KiB (0%)
* M# E7 h9 k4 F" }1 ILanguage : Thai& i9 ?% C% G* _( P
Default : No
  |2 w8 P0 b) n$ @: BForced : No
& o0 N3 _3 j& }, z2 }
9 ?' H4 c) i5 q0 U
8 [2 H: y! h  O
Text #31* I$ o) g( L, S8 W  y
ID : 335 r0 P; S" r( D3 f" U
Format : UTF-8
% |" b# c6 ^2 F/ o7 N& cCodec ID : S_TEXT/UTF8
% b3 k$ y( g* vCodec ID/Info : UTF-8 Plain Text
3 E- A7 Z7 a1 f9 A3 B0 QDuration : 1 h 29 min" N& {  O! k' b) y5 k" b' S: P; e
Bit rate : 75 b/s
0 F9 N" A+ g; L: @8 m9 x/ a0 aFrame rate : 0.252 FPS
5 Y) p& P) `$ C! t: gCount of elements : 1348
' P+ P8 Z2 m: U6 RStream size : 49.5 KiB (0%)/ f. ?5 {, p3 w0 S
Language : Turkish! x5 ?  l& J' a9 x. h
Default : No; @3 H. x. V( I
Forced : No
% m( N. p! T# j: T0 I+ J
: e4 @- ]$ c) h% W) d9 y8 R, x4 ?4 y  v

0 M2 B# J2 E( d* pText #32
- \, I; z$ P, rID : 34# n* C7 D4 D/ E
Format : UTF-8/ J& z+ Y( O  ]4 N
Codec ID : S_TEXT/UTF8
* V1 N, ]2 O+ j! ACodec ID/Info : UTF-8 Plain Text
- M/ v" F; X+ i' M* `, ?Duration : 1 h 29 min
2 G) A$ L. ~. _7 D. oBit rate : 129 b/s* I! P% [2 m* ^4 N. U
Frame rate : 0.260 FPS
5 f6 O/ N  g! V* n( hCount of elements : 1391* b8 t, T. w) D2 D
Stream size : 84.3 KiB (0%)
, d8 W7 f# u1 NLanguage : Ukrainian
  r. A% x6 p$ I+ }Default : No
9 y: b$ W' @3 W) @4 K3 H8 e" J- M/ hForced : No+ H( C4 P/ _* N
9 N6 X# j8 E9 f) W+ \+ S

, M4 H/ v3 B4 K8 a6 X0 GText #33
, f+ ^" l: z" l. P* x' O& AID : 354 R: W6 u8 h" I6 M
Format : UTF-80 h+ r3 F4 m1 P7 M1 A
Codec ID : S_TEXT/UTF8
3 Y8 U0 s3 g! B6 j, s7 ~5 HCodec ID/Info : UTF-8 Plain Text
, {5 Q: t( V% _6 uDuration : 1 h 29 min2 B) `2 i6 a' M" O; [+ J
Bit rate : 103 b/s
( L, G; I) x6 h) ~- n. S+ `8 JFrame rate : 0.263 FPS! o; u5 M8 y# c; M$ q" H6 H% {5 a
Count of elements : 1407
- v5 ~4 n3 }3 CStream size : 67.3 KiB (0%)
( l3 S' k: u; l9 tLanguage : Vietnamese8 O) n( }& G8 N6 w, D  {2 k
Default : No
5 z/ E( F8 ]  T; VForced : No
2 i" R+ y+ P' W- {3 ?0 N
9 n, a, x* s3 }% f. Z/ z1 L0 ~) K

1 q" ?$ K6 I# B; v  kText #34, }9 W4 q. @. o! @( t
ID : 36) k/ h& G4 m1 m- X
Format : UTF-8
0 g& }; C9 H6 o2 X, S7 P1 k1 |Codec ID : S_TEXT/UTF8, t% d; z) T+ A  j; Y# Y0 B# A4 u
Codec ID/Info : UTF-8 Plain Text* h' @. I0 A0 a' T
Duration : 1 h 28 min! e  \; ]9 V, S8 w* i2 r
Bit rate : 74 b/s" x4 i0 p, O. U6 ?) W' F
Frame rate : 0.265 FPS
1 `7 }' M8 j! Y: u' KCount of elements : 1413
8 B" s" {4 ^  ~) Z1 d, h7 [. M8 XStream size : 48.6 KiB (0%)
- S9 {6 Z( x; o# HTitle : Simplified7 e5 p0 m  H! H/ }* P4 B7 G4 G
Language : Chinese (Simplied)* m, `! ^) W% q! ?# a
Default : No
2 x* S0 W8 K/ _7 U" P" Y9 QForced : No
1 E) k5 z. i; }0 }. m4 e! ]+ r
" L, t. t6 o5 q
6 q9 [3 l6 L6 w5 S* b2 M# `
Text #35
" `  U: N: @8 N, W" t; d- H) V7 fID : 37
0 o( g% X$ Z5 @+ X3 RFormat : UTF-8
& i4 e; _  j8 b4 o, UCodec ID : S_TEXT/UTF8
) J( W' y8 [, i/ @5 q: f! }8 ?( J9 {Codec ID/Info : UTF-8 Plain Text
% C* ?; |  f/ A9 f. A6 jDuration : 1 h 29 min
2 M* h: o) Z' c& p2 [) VBit rate : 77 b/s
* `$ M4 h! Y3 M' [2 i0 ZFrame rate : 0.268 FPS
# Y0 J9 e6 T5 c" C' ]0 q2 ?0 fCount of elements : 1434
# G# N' C5 m# U; ~Stream size : 50.7 KiB (0%)
. r! D/ O9 `2 \- i# PTitle : Traditional
$ j7 X7 \0 `1 [. k) O  V: _4 E( o5 fLanguage : Chinese (Traditional)
, Q& F9 X, A. V0 ?6 {, LDefault : No
7 l! f, j5 _' y5 m5 V2 kForced : No
, E3 ]9 d* q( F- t$ q* x
$ t! P% _) }! ?! h/ F
( m" D' p  D, J, }6 {
Menu
$ k4 Q. W, I' y' v01:29:10.000 : en:End Credits

' O" s& w+ }3 I" ?2 H+ p& A! `

2 h8 q  l7 D, x4 x* p7 a6 T3 D4 b5 {老罗拔唐尼:自成一格 / 老爸/罗伯特·唐尼:自成一格4k.Sr.2022.2160p.NF.WEB-DL.x265.10bit.SDR.DDP5.1-电影下载
: t- L+ _) T& B* f4 `8 H. y5 Y' p$ p
% B* E; b& f' U- A3 b& ~4 ^4 A罗伯特·唐尼:自成一格4k.Sr.2022.2160p.NF.WEB-DL.x265.10bit.SDR.DDP5.1-简繁中字【7.96 GB】
6 _. n2 L; O+ ]

罗伯特·唐尼:自成一格4k.Sr.2022.2160p.NF.WEB-DL.x265.10bit.SDR.DDP5.1-Jr.torrent ( 20.51 KB )

! v  f* }2 O+ ~' P9 }

2 X; L% K8 m; ^- Z1 f8 R; p/ P. p8 j( J8 F2 K
: ^/ ^; {. ]" F5 K
登录 发布 快速回复 返回顶部 返回列表