开启辅助访问
 找回密码
 立即注册

老罗拔唐尼:自成一格 / 老爸/罗伯特·唐尼:自成一格4k.Sr.2022.2160p.NF.WEB-DL.x265.10bit.SDR.DDP5.1-电影

#4k记录视频#时间:2023-04-28 阅读:269 回复:0

" W7 I3 [5 h# c. [ 151652r460jabwmew6bbaw.jpg.jpg
: {; c7 p$ I2 r0 u4 T& \
% X2 u2 e! h2 z2 C
8 `* h  z1 s. b) a" z" M0 j* E简       介
4 Q8 O, C* Y; ~; g- }8 d6 s
5 f( P; v. W% h4 k, x7 Y
       就像父亲。就像儿子。就像其他人一样。《老》是对特立独行的电影制作人罗伯特·唐尼(Robert Downey Sr.)的生活和职业的一幅可爱而不敬的描绘,很快就转变为对艺术、死亡和治疗代际功能障碍的沉思。! O" ^+ o5 v# X! b5 R: R; j3 `

& T; q8 v$ m1 f. X6 S% v% [5 |影片参数
老罗拔唐尼:自成一格 / 老爸/罗伯特·唐尼:自成一格4k.Sr.2022.2160p.NF.WEB-DL.x265.10bit.SDR.DDP5.1-电影信息
, N  b7 }/ g. q  W7 Y: ?0 A$ D( Y! AVideo1 _. ~4 Z& ]) }/ e5 N5 Q
ID : 1
% r! U( W; ~. |1 K! Q; N9 ]- IFormat : HEVC+ f2 N; C* {2 N$ L1 L
Format/Info : High Efficiency Video Coding0 H% M# \4 C: I
Format profile : Main 10@L5@Main
% Z+ i3 `& o/ t9 @5 p. P$ cCodec ID : V_MPEGH/ISO/HEVC
: a& F1 Y% X& u( a' ]Duration : 1 h 29 min# |1 l; ?; Y' S4 f" D$ h
Bit rate : 12.1 Mb/s% P# l* \; g9 k* [+ a; |6 ~( K
Width : 3 840 pixels
$ J$ F2 S9 J8 l  k2 j$ R3 uHeight : 2 160 pixels
! O! U5 P7 l/ W3 QDisplay aspect ratio : 16:96 s4 v3 E, M, e& M% I  O! \
Frame rate mode : Constant
4 ?" L6 Y  X4 F! N" }  UFrame rate : 23.976 (24000/1001) FPS' E  O3 m: Z* z6 ~$ H
Color space : YUV
( j9 J$ o: A# l3 `) w% _Chroma subsampling : 4:2:0
$ {0 \' b: q- ?1 I4 T+ j4 K9 i4 QBit depth : 10 bits
% q, P4 e8 @0 K) M* }/ H+ n6 @Bits/(Pixel*Frame) : 0.061
# Y9 E; z, W* g% BStream size : 7.55 GiB (95%)
3 F  M1 `1 [8 @) _* w$ L6 s7 vLanguage : English
: ]3 }* G8 O9 C4 R0 dDefault : Yes
1 L  g6 [& t. v6 x4 x* c' U! ~4 rForced : No" n. b+ ]% B5 n. A; [7 J7 c8 g
Color range : Limited; z6 k$ Y4 s* |& c% b& u. J
Color primaries : BT.709$ u( u# t3 m; A4 ^" E* Q; F  ~
Transfer characteristics : BT.709
  T4 _" Z$ ^# K: C* EMatrix coefficients : BT.709
7 H/ {' _2 Q$ |. a' G4 k0 S& Z0 [, a! d
# x  x# M  ^4 F/ s0 r7 L
Audio
! ?! H# ^4 [# m; z! QID : 2
$ \9 }3 j2 k% C9 XFormat : E-AC-3
9 o, B7 g$ I; b% M( H" i4 d  OFormat/Info : Enhanced AC-3
; O& ~6 h; F! n( h3 wCommercial name : Dolby Digital Plus, Z) M' B! M# B
Codec ID : A_EAC3- G+ }; X1 P4 Z) D9 v% k; l
Duration : 1 h 29 min* ^6 k" b0 P( `' x" p- \
Bit rate mode : Constant. Z0 T0 `9 Z1 S+ w  a
Bit rate : 640 kb/s* d# o( o: m& o' G# \& y6 s) w. D
Channel(s) : 6 channels
, s8 h5 b3 K" j- _( G7 bChannel layout : L R C LFE Ls Rs% M" N8 z. k& |, R8 K. h/ C
Sampling rate : 48.0 kHz
! U! G& ^) c/ p* F$ d3 C( QFrame rate : 31.250 FPS (1536 SPF): H" l2 r5 l2 L0 V$ n2 E/ X( d' k4 x
Compression mode : Lossy* E" g* k+ s. O; R  E) y
Stream size : 409 MiB (5%)5 B& c3 W4 |  \2 u6 i
Language : English
" b6 B: A  U4 q& h1 h3 ^Service kind : Complete Main9 p+ C$ M; [+ l
Default : Yes9 s5 L8 \4 b" p+ j, b& x- ^
Forced : No/ Z0 z: j& r4 [7 u3 }

1 z5 H; l+ k" K8 Z! @

' b* g+ h- m. S' XText #30
( n; Z2 [! r! U$ G. C; T$ KID : 321 h/ g1 ~6 B$ ]: K
Format : UTF-8
/ J5 i; |. q6 q) D1 Z3 yCodec ID : S_TEXT/UTF8
. g3 t6 o. B7 w( JCodec ID/Info : UTF-8 Plain Text6 ~( T/ {3 f- |0 q# r/ V' F
Duration : 1 h 29 min
$ x) R  F+ t9 H( B$ r  F3 J5 \+ gBit rate : 183 b/s2 ?4 |1 e7 b2 T' y% ^) `9 W2 h1 p
Frame rate : 0.265 FPS9 o8 P5 I/ ^* V* \' d9 `( k! Y
Count of elements : 1415
. h+ T3 O' h# VStream size : 120 KiB (0%)3 A( o. |+ {6 x5 |4 w' t9 J
Language : Thai
; ~$ e1 e$ w( s2 cDefault : No% h+ J) k0 p( f  s* O: g% X$ }
Forced : No
3 p3 c- B( ^3 Z7 O
8 B0 G2 E& v$ R: T% ^8 w2 M

1 l5 l% N/ X: z% BText #31
/ @. l: s; e# yID : 33
2 \! I- B- f0 J; s: N' B1 d5 x$ wFormat : UTF-8
# w0 v; G/ j  K& u& VCodec ID : S_TEXT/UTF8
' V+ X+ j" A4 i" B  p7 X( q* sCodec ID/Info : UTF-8 Plain Text; ^, E2 B: j, ]9 F
Duration : 1 h 29 min
, C8 N, H+ R2 O, R9 ~Bit rate : 75 b/s
7 ]0 f! {9 V/ uFrame rate : 0.252 FPS7 k' D- N3 I" e
Count of elements : 13482 @  s0 d7 ^/ t2 q. D( R7 |
Stream size : 49.5 KiB (0%)0 G9 E. P! r4 i7 r
Language : Turkish
7 w* R9 j/ q+ {Default : No
, B" I: Q  E. KForced : No
; @4 ]. Q6 E) F1 u/ v+ \3 ]3 G4 M2 T
5 E' S) q( ^9 ~. f
Text #32
! p( M- D  Y  M5 C$ S* lID : 34" d9 O7 s5 j# d0 F5 P
Format : UTF-8
  A9 ?' Y3 K2 ?  D: }9 }3 zCodec ID : S_TEXT/UTF8
- T& A8 ~4 [, o& d: SCodec ID/Info : UTF-8 Plain Text
" Y; c8 n3 h4 ]Duration : 1 h 29 min; u3 k/ {! d/ M
Bit rate : 129 b/s% S" k7 W, V0 ?. ~0 M( Z
Frame rate : 0.260 FPS6 j) `2 }3 L9 t# f. L# N
Count of elements : 1391% i/ R. r5 a: A2 h, e! a
Stream size : 84.3 KiB (0%)1 d2 X  H. O& n: |% o" j$ X
Language : Ukrainian' B8 s8 N6 ]$ g( l2 a: B
Default : No
, ~5 z( E% z; ~5 h3 `; w7 tForced : No
+ _9 y5 N4 J( c( q- M
. F+ d8 `: g' s- N+ H

& w7 w$ Y# x+ r2 p/ aText #33, d$ Q% V% ?' X- y. c! ]
ID : 35: @- p. B. v4 ]6 E" D
Format : UTF-84 p( b; |9 G; {
Codec ID : S_TEXT/UTF8
  A; g- U9 H+ z/ pCodec ID/Info : UTF-8 Plain Text
% |/ g, y3 a2 j- ?4 g1 ]& MDuration : 1 h 29 min
& Z1 S& q9 j- r: O. ^5 W! ^. lBit rate : 103 b/s
! [8 T4 J  t  S* Q4 ?# P' f2 U  sFrame rate : 0.263 FPS
* w" P* g, }9 m. WCount of elements : 1407( j  T9 A3 v2 H5 V' u7 W3 g, o
Stream size : 67.3 KiB (0%)* K3 M' I# ]( ~, u& \
Language : Vietnamese
# [& K5 J, k! b- NDefault : No3 t8 C' j6 b# E  g
Forced : No
3 k6 K' }# k0 Q; e* {; E( u2 b+ {) p/ i- W3 W& c
9 o0 ?6 @0 N/ b
Text #34
. A: q' O2 e- x" Q: K6 J  z6 z5 WID : 36' i* O, X8 P, S
Format : UTF-81 x6 z% e! a% O0 K! a: {
Codec ID : S_TEXT/UTF8
4 r; I: R! e1 y6 ICodec ID/Info : UTF-8 Plain Text3 |) B' L' k3 J9 i) T5 @
Duration : 1 h 28 min
6 i$ y4 h% Q% e$ LBit rate : 74 b/s; Q  d& ~$ M0 G# ]
Frame rate : 0.265 FPS2 ]6 j! S' P% Q/ L# u, e
Count of elements : 1413/ V" Q& P% e) K# g& L, p( V
Stream size : 48.6 KiB (0%)
3 Q3 B2 x+ m5 a5 j+ t3 NTitle : Simplified- F  w7 f. L4 @0 o
Language : Chinese (Simplied)
& f. X- d( F1 q. d% }' g  |4 sDefault : No
, G$ [& e8 T8 r- C& NForced : No
8 E( @: h4 a. P+ Z# v" Q* s3 ~9 d- ~) w' e

! \! ?# u$ r. }2 `2 _# CText #35% i0 S& w4 H5 I3 A4 r7 k* [
ID : 37% q% J5 H0 S# K+ Y) Q- D$ f/ B( z
Format : UTF-8# ^, B4 E$ o1 R- R$ F7 q
Codec ID : S_TEXT/UTF8. N' r! P2 M% e) l& L5 i
Codec ID/Info : UTF-8 Plain Text6 V6 W8 L9 w0 U" q
Duration : 1 h 29 min
- ^. ^/ k2 {7 e5 U& qBit rate : 77 b/s2 C1 u8 S" x" O, l
Frame rate : 0.268 FPS& y5 G/ \$ h" N0 Q# v
Count of elements : 14340 ^" d' r( Z6 |
Stream size : 50.7 KiB (0%)
" g) y7 h; F+ O/ b) j4 M; sTitle : Traditional
/ J+ a" R" O/ l# jLanguage : Chinese (Traditional). h! H0 V/ E8 A/ D: e# m
Default : No( S& u: i% J+ `1 S
Forced : No; d; B7 D. p  R7 m1 q/ N' r
% }2 _. V9 O/ i: F% @- v

" P9 {) @5 C6 r9 O* }( x5 D' |$ OMenu3 t, [1 s9 j# H% |" j" b
01:29:10.000 : en:End Credits
* q+ N1 _1 O3 I! z1 X* o5 V1 M8 ]/ q
& r, H  Q& I2 G- e1 E, E+ }! C% u
' t  A5 m, {1 H* F: u
老罗拔唐尼:自成一格 / 老爸/罗伯特·唐尼:自成一格4k.Sr.2022.2160p.NF.WEB-DL.x265.10bit.SDR.DDP5.1-电影下载
; o' b& N) L' U9 w
/ K" Q+ B9 a# ~6 s1 N5 k2 t罗伯特·唐尼:自成一格4k.Sr.2022.2160p.NF.WEB-DL.x265.10bit.SDR.DDP5.1-简繁中字【7.96 GB】
. T0 r, S  z7 u. Z

罗伯特·唐尼:自成一格4k.Sr.2022.2160p.NF.WEB-DL.x265.10bit.SDR.DDP5.1-Jr.torrent ( 20.51 KB )


6 e6 e$ A0 d4 z& V' K6 G# z2 Z7 Y+ l8 {. C

( [) Z& l) J% R- I# K  b: |7 H0 l2 G: G
登录 发布 快速回复 返回顶部 返回列表