开启辅助访问
 找回密码
 立即注册

菲尔·斯图茨 / 斯图茨 / 施图茨/施图茨的疗愈之道4k.Stutz.2022.2160p.NF.WEB-DL.x265.10bit.HDR.DDP5.1-纪录片

#4k记录视频#时间:2023-04-28 阅读:350 回复:0

9 u! ?3 Y9 T: o! h5 ^ 152319gxl03blrg62lj2el.jpg.jpg
- O6 T1 D. w9 ]2 }& H( h( S1 p8 j! [0 i+ }
* o. l3 Z0 Q9 G* a2 v  ]) X) y
简       介
6 u  B3 x7 V8 M

. R- b  ]! e2 U+ d7 u  在与演员乔纳·希尔的坦诚对话中,主治心理医生菲尔·施图茨探讨了自己的早年经历和独一无二的视觉治疗模型。: E# r4 ?. e8 q$ j) `! c
& R# A1 Y  Y$ |. |  z
影片参数
菲尔·斯图茨 / 斯图茨 / 施图茨/施图茨的疗愈之道4k.Stutz.2022.2160p.NF.WEB-DL.x265.10bit.HDR.DDP5.1-纪录片信息
4 v" l9 `; Z9 E; a1 f. r  j4 {# aVideo+ f* P8 h- c$ ~0 K" j- S
ID : 18 Q5 w# j" O: ~2 N( K# V
Format : HEVC
+ a# }# [1 v* i5 ^3 |Format/Info : High Efficiency Video Coding! l( t9 l- N" D1 Q7 k, Q
Format profile : Main 10@L5@Main
, }- R5 a9 v- }/ t3 ZHDR format : Dolby Vision, Version 1.0, dvhe.08.06, BL+RPU, HDR10 compatible / SMPTE ST 2086, HDR10 compatible
+ d' {0 F% I/ w4 Y9 v/ DCodec ID : V_MPEGH/ISO/HEVC
: ~0 n3 s% {9 M, T8 C, x# BDuration : 1 h 36 min
0 Q& K( Z- k6 k; BBit rate : 18.6 Mb/s
! @1 U8 a( O- \( r7 v! hWidth : 3 840 pixels; W8 U& P% X) J( A+ _8 }! |+ @/ S
Height : 2 160 pixels2 [* x; b% m# `- A  k7 {% a
Display aspect ratio : 16:9
' j) C+ p1 J" g1 HFrame rate mode : Constant
4 f% H7 I9 W( g( z" ]Frame rate : 23.976 (24000/1001) FPS+ h- g! O  y$ T+ w% \5 m1 s
Color space : YUV  ^/ k( s5 e6 R# M3 L9 }! d$ o
Chroma subsampling : 4:2:0 (Type 2)# v. D/ G' o9 e7 M2 I9 n
Bit depth : 10 bits0 G' e+ W& }( t* v' x$ V; G
Bits/(Pixel*Frame) : 0.0943 p- _; r- D  ]
Stream size : 12.5 GiB (97%)
& v% F, M1 A$ {; }& H- dLanguage : English" r7 F/ w1 f* a# S. w2 Z$ b& Q: a
Default : Yes
& v* w$ g5 a( p! ?& iForced : No# X# z/ L) {7 N$ x4 {. Q$ G* o# n+ J
Color range : Limited7 T9 l, u" _  ]& c. q' u
Color primaries : BT.2020
2 N. G0 _* i3 R; ?5 U* |# y" PTransfer characteristics : PQ
7 o: f; b; E% W1 l; u1 M7 e, M1 zMatrix coefficients : BT.2020 non-constant9 X  a, b4 ~  K5 B0 x% d
Mastering display color primaries : Display P3, {; g& D7 p8 A0 x, a4 b' g
Mastering display luminance : min: 0.0001 cd/m2, max: 1000 cd/m23 _1 b3 z) V; [* Q. k" \. ^0 s
Maximum Content Light Level : 756 cd/m2
9 t/ t1 ^0 X" |- [6 s3 Y- rMaximum Frame-Average Light Level : 163 cd/m2, ^8 T! c5 I( A6 w& u

0 @/ ^8 w& H) K: k' ~2 U  n
2 C! b0 {: j4 ~# x8 G9 t9 \( t
Audio
9 ^+ T4 R& g) j4 J: H, x% SID : 2( C  U) _/ {: Q  \) }. B" }2 }
Format : E-AC-3
& g& C: X" B, K8 \. VFormat/Info : Enhanced AC-3& e# q. E; G! G
Commercial name : Dolby Digital Plus8 a; s7 |# a; }1 @& G: z6 ?
Codec ID : A_EAC3
% x. k- r  d! V6 I- GDuration : 1 h 36 min
, [* L2 V& y7 z8 C9 F+ NBit rate mode : Constant
  B; c4 ~6 _7 \Bit rate : 640 kb/s
8 Y# r. C6 Z. ~9 H+ ZChannel(s) : 6 channels
$ ]  P( k9 q9 A( d1 i1 |- [Channel layout : L R C LFE Ls Rs# \' k' [2 y) K
Sampling rate : 48.0 kHz
% f$ C) u: j6 N; s/ WFrame rate : 31.250 FPS (1536 SPF)1 K% Y, ^* R/ p6 Y
Compression mode : Lossy+ k: Q6 ?" p9 r4 p  t. R
Stream size : 441 MiB (3%)' K) p2 E' j0 p: H# N9 {* B
Language : English
' P, O6 ^9 X0 H. z/ P. EService kind : Complete Main# l. n5 p2 S! |' G, a7 ~1 y
Default : Yes9 m9 c7 @( W7 Q% E% f& c
Forced : No
: q$ _' O% b, F! kText #28
* z* L! I2 z& K0 @) H5 H  oID : 30
; c0 E% `2 c" D& lFormat : UTF-8
6 ~) I3 _* K& }* dCodec ID : S_TEXT/UTF8
) R0 f+ Z* u$ ]1 |Codec ID/Info : UTF-8 Plain Text( Y5 \) F: d( Y' w; K, E! e6 G: i
Duration : 1 h 34 min
9 @3 T% O' i8 G+ z/ n3 m7 T) NBit rate : 85 b/s( h, [  G2 T& ?; ~% a
Frame rate : 0.262 FPS+ N$ o8 E6 @3 O
Count of elements : 1490
7 d4 J- y) ?, C4 AStream size : 59.3 KiB (0%)8 ^8 d+ T% N6 `" L; T. }
Language : Swedish7 Q+ J  c# ^) {  I* g* U
Default : No6 J- ^* }/ E* `+ u- w" o1 v+ s
Forced : No
0 ]* l% S. X% q/ \1 Z- m
9 f' T. R9 ]5 Q3 G8 ~+ K( Z. E
4 w! s* w9 ]  W2 M* }9 P
Text #29  ]# W# O! W, C9 ~7 ]0 h
ID : 31( G  _3 G/ f+ ^" c$ r
Format : UTF-8- L* W- U+ A. z% r
Codec ID : S_TEXT/UTF8
5 l7 q6 p: a( ~+ P9 I2 WCodec ID/Info : UTF-8 Plain Text
; g  _1 ]+ x$ D4 f* WDuration : 1 h 34 min
: C1 q7 ~( V. f( b' jBit rate : 231 b/s
) b0 A/ T) M! V( w* `3 K. IFrame rate : 0.278 FPS& z* V' G' j+ H% ~
Count of elements : 1581
( b  U- Q# z: c6 UStream size : 161 KiB (0%)
$ {+ g) U  G6 p! hLanguage : Thai3 k* R: v, V+ A9 t. n4 Q
Default : No' S+ L  [1 f& ]' H3 M
Forced : No
) o$ ^: D8 b: O& M( T
: A# t: J" j6 N3 ?

( }% F& X: B6 V9 y& [, {Text #30
/ Q& h1 I2 M8 h7 d3 HID : 32
3 ^3 M6 H* X+ f: V- c" {3 ]6 hFormat : UTF-8
1 Z% p- H4 z& c0 J' ~+ O1 s! Y+ |Codec ID : S_TEXT/UTF8
( q4 G# L5 C3 f, ACodec ID/Info : UTF-8 Plain Text. H$ c5 C/ O/ e" n1 O3 s5 A, I' J7 D" H
Duration : 1 h 34 min
* c- W; T; Z- E7 p" ~Bit rate : 87 b/s( i  v# G6 Q1 [# Y6 r
Frame rate : 0.271 FPS
+ `( Y; \! q9 l4 T* HCount of elements : 1541& D7 L' m7 Q3 {& J5 S  d9 x" ^
Stream size : 60.9 KiB (0%)
. `! }3 ?* P# T% I$ [7 kLanguage : Turkish
# I; r6 [3 k$ y& V1 S1 J, NDefault : No
% i0 C. {% J$ U4 A4 HForced : No
+ }# Z! c& i: n6 a# Z/ R' n6 z3 E* z9 u; f

1 k" [. ^( }8 dText #31. j5 ~* e" Y3 J" {0 F
ID : 33$ ^+ q2 E% A0 W' B
Format : UTF-8
: Z$ H2 N* G) d2 z7 vCodec ID : S_TEXT/UTF8) h9 N4 g! ]; V6 C
Codec ID/Info : UTF-8 Plain Text
% s# q8 C5 n0 `* m: KDuration : 1 h 34 min
9 f" o% N$ i8 d3 z, \Bit rate : 139 b/s6 S4 P/ b0 B: U! z1 l
Frame rate : 0.279 FPS' w) c0 |5 W: U8 T  k
Count of elements : 1586
7 }" P6 j5 g" f/ aStream size : 96.6 KiB (0%)/ M/ D6 i1 f: y4 Q
Language : Ukrainian
& p; X# J( B" I' VDefault : No
% f2 Q' }9 _1 L" G0 U. F6 SForced : No6 c7 }9 W9 a/ @" ?6 M8 a
" u/ V' Q7 e6 l) d* z3 Y

# A( v6 i9 ?$ O. u+ D1 rText #32
  |$ d8 ^& M3 b* I+ Z6 W& O# DID : 34
# e4 K) k* |) A$ |Format : UTF-8
9 X: l# q1 A% E, O. r! n* Q' XCodec ID : S_TEXT/UTF8: r$ F0 x, r# z" R8 y, r
Codec ID/Info : UTF-8 Plain Text
! s- D' Y/ i; a' n/ jDuration : 1 h 34 min! q2 S& d0 i% p
Bit rate : 123 b/s
: \, s9 m" H7 ?1 O* _Frame rate : 0.275 FPS8 }8 R/ C, g  b6 K$ S1 N& S9 F
Count of elements : 1566: `  T9 M- g& F4 Z5 {# ]
Stream size : 85.8 KiB (0%)- W# |& I2 X' i$ n9 i
Language : Vietnamese9 H/ ?1 i8 A+ @: n5 S
Default : No7 N) ^+ w( x$ C' w% W
Forced : No
% I- {5 w& }7 Z/ A$ j, e
6 a9 I/ {: ]( _" R. T
( ^% Q, ~: s9 \
Text #33' {* ^& J8 e# S( P
ID : 35; F1 Y) S. t2 h* C4 x1 q# P# R) X. r
Format : UTF-8
! F% t2 ~6 g9 qCodec ID : S_TEXT/UTF8* ~# t4 _% U8 Y1 K6 u& v3 L) M
Codec ID/Info : UTF-8 Plain Text' W" l. C2 p4 t' o' m  W: f( t
Duration : 1 h 34 min
1 G( N) C) ]+ Z9 B0 X0 J6 L! KBit rate : 90 b/s
! X& I5 m% |  B! R- f. n/ |# K) ?Frame rate : 0.278 FPS
/ q; n7 U9 V& m& V6 w1 |. n9 PCount of elements : 1583
* X4 q& [. X2 q/ T) Z) y, \- AStream size : 62.9 KiB (0%)- u/ [% E6 [3 x4 @5 d
Title : Simplified
* ]2 Y. I3 O5 h# H4 P$ `" |0 i. HLanguage : Chinese (Simplied)
3 [* L- R8 T1 n0 Y$ mDefault : No
; P$ {+ L! i8 K! K" w, b! wForced : No
# Q4 S+ S9 N+ m; q- g: @0 s: x3 a- z" D% R& k% u) C/ i

2 z0 K& [+ w2 u  j8 `3 g& mText #34( G" X, X0 g+ e$ T* _
ID : 36  ?' U$ X0 `1 o4 J" y$ v
Format : UTF-8; \+ _. ?: @* B" |
Codec ID : S_TEXT/UTF85 y* L( L5 h: O5 Z3 ^* u* e
Codec ID/Info : UTF-8 Plain Text
6 w5 c0 e! u* cDuration : 1 h 34 min
: `) X$ ^+ E) H% [* s/ z2 y& EBit rate : 87 b/s' U% ~! ]" D6 J4 _* X+ \+ ^
Frame rate : 0.282 FPS) w4 z7 E% N# I+ n4 y. l' o
Count of elements : 1602
; t: s: A* Y- p3 nStream size : 60.9 KiB (0%)
& M- U  M) w2 X; Z: w, s* xTitle : Traditional5 Z2 z5 f% b1 I: `7 p
Language : Chinese (Traditional)
/ D& i0 k+ \2 L0 PDefault : No
" F- V; A0 B+ ]/ f, _! |( lForced : No
5 u  j% z$ t9 G/ w. w# k& d* r" F% g/ s- t: Q3 a. f

# K& B, C) D' x  i/ B% {Menu) G( p$ Z8 m, M
01:34:02.000 : en:End Credits
/ ?' A9 V: u$ m0 I. D/ ?$ aTrailer:        

. O9 l* @5 U% I  f3 ^% T3 V; m. ^4 y" `
0 B% ~  l1 p# i) g

( D# t- l+ v: G. U! ?9 W; O( T- k菲尔·斯图茨 / 斯图茨 / 施图茨/施图茨的疗愈之道4k.Stutz.2022.2160p.NF.WEB-DL.x265.10bit.HDR.DDP5.1-纪录片下载
! w: e6 Z: [7 R' I3 y  J* `7 N% ^/ h# ?
施图茨的疗愈之道4k.Stutz.2022.2160p.NF.WEB-DL.x265.10bit.HDR.DDP5.1-简繁中字【12.94 GB】
7 r- _( ^( [" t8 S" @! t% h

施图茨的疗愈之道4k.Stutz.2022.2160p.NF.WEB-DL.x265.10bit.HDR.DDP5.1-Slutz.torrent ( 16.82 KB )

/ l9 H) g6 U0 B4 C
) I  F: o9 y' L
施图茨的疗愈之道4k.Stutz.2022.2160p.NF.WEB-DL.x265.10bit.SDR.DDP5.1-简繁中字【8.56 GB】; q8 H: V: V) l* B

施图茨的疗愈之道4k.Stutz.2022.2160p.NF.WEB-DL.x265.10bit.SDR.DDP5.1-Slutz.torrent ( 22.02 KB )

6 X% h3 p1 @8 r) H

5 \1 n" D' x5 Q, {1 p/ m5 ~5 ^施图茨的疗愈之道4k.Stutz.2022.2160p.NF.WEB-DL.DDP5.1.DV.MP4.x265-简繁中字【杜比视界】【12.76 GB】8 s4 ~" H- ~  T" V: ]9 a- |& o

施图茨的疗愈之道 Stutz.2022.2160p.NF.WEB-DL.DDP5.1.DV.MP4.x265-DVSUX.torrent ( 16.58 KB )

/ R6 a6 E9 p, C& I: C

3 n) A6 w6 u' l5 J; G施图茨的疗愈之道4k.Stutz.2022.2160p.NF.WEB-DL.DDP5.1.DV.MKV.x265-简繁中字【杜比视界】【12.76 GB】; Y& H4 Y- Q% l

施图茨的疗愈之道 Stutz.2022.2160p.NF.WEB-DL.DDP5.1.DV.MKV.x265-Slutz.torrent ( 16.57 KB )


4 g8 w! \9 Y" ]
& s& ^& x7 X8 d( w" j: K! J
8 G, n0 r: Z) t; ]- X& y
* G' L' {6 j7 v( G3 N3 ^$ o
. e) L* L2 A9 H& O0 q9 o) @% v
登录 发布 快速回复 返回顶部 返回列表