开启辅助访问
 找回密码
 立即注册

乔琪·斯通:梦想人生4k.The.Dreamlife.of.Georgie.Stone.2022.2160p.NF.WEB-DL.x265.10bit.HDR.DDP5.1-纪录片

#4k记录视频#时间:2023-04-28 阅读:283 回复:0
6 r9 J+ C' E4 R' E
153013t3hr3d1nys6dh1d7.jpg.jpg , p8 a' o# p, r8 G; m9 U
+ H6 }7 a; @* F2 ?; T& V
简       介8 M# N! d- O( G) o$ X
( o" g8 W6 H; F- t! H( r/ B$ D
       《乔治·斯通的梦想生活》跨越19年,讲述了澳大利亚跨性别青少年乔治·斯通帮助改变法律、确认性别、找到声音、步入成年的记忆。8 ~9 S0 x* ]8 n, j# N, [, N; r
梦想生活项目是一个由跨性别、性别多样性和非二元性的年轻人组成的咨询委员会开发和领导的合作故事活动,将伴随电影上映。
, F# X4 c4 v2 l7 q' L# A7 z  A* n/ P: L0 O; J3 ~
影片参数
' e, l7 V7 Q. D8 Z" n8 @
3 }8 r: R! T4 P$ C. h9 ~
乔琪·斯通:梦想人生4k.The.Dreamlife.of.Georgie.Stone.2022.2160p.NF.WEB-DL.x265.10bit.HDR.DDP5.1-纪录片信息( N% C$ B: `+ X( f/ t3 f( ~
Video
9 K  Y8 f9 `. `ID : 1- @4 \- m7 A( K; n
Format : HEVC7 ?! Y4 O+ [- o4 A9 W
Format/Info : High Efficiency Video Coding# i0 R$ D5 j- x0 W: a! q
Format profile : Main 10@L5@Main5 f- J7 w  _( A
HDR format : Dolby Vision, Version 1.0, dvhe.08.06, BL+RPU, HDR10 compatible / SMPTE ST 2086, HDR10 compatible4 G7 Z" |+ c- A/ a* o$ N( ]
Codec ID : V_MPEGH/ISO/HEVC
- V( z, O* F% h+ f/ L. jDuration : 29 min 23 s
2 F0 m" t* O, e, L. B" lBit rate : 12.1 Mb/s
& o$ A5 R& \# Z7 j, X$ J" v7 e' TWidth : 3 840 pixels
2 \, z, ?) @2 N) Q# THeight : 2 160 pixels
) O4 X/ |; j, h% s! O+ H' i5 YDisplay aspect ratio : 16:9
' n: o% s& W4 xFrame rate mode : Constant
$ ?( d4 f  e& YFrame rate : 23.976 (24000/1001) FPS
" l+ p+ {' `+ u8 CColor space : YUV
9 W+ Z1 t: X9 W- F' V9 y6 ?Chroma subsampling : 4:2:0 (Type 2)$ B  A" c8 W- ^" A" y. A5 ~; E3 |
Bit depth : 10 bits
2 I+ k% x7 G7 F# T0 |/ BBits/(Pixel*Frame) : 0.061
0 m  m7 \4 v) f4 D; OStream size : 2.49 GiB (95%)
$ O) W$ x# t- R7 L8 rLanguage : English
7 ?0 Y4 Z. C: b# }1 lDefault : Yes" u7 `% \5 c/ {1 y
Forced : No0 I4 z( s7 k6 ~& X2 ^
Color range : Limited
6 P2 z! o% m& J$ H5 P) v1 LColor primaries : BT.2020/ A- c% c. A( X/ T
Transfer characteristics : PQ! _8 f; d% z0 O3 m
Matrix coefficients : BT.2020 non-constant! Z% ~  D' H1 w+ [
Mastering display color primaries : Display P3
) G, `5 Z* [" m3 a3 ^5 H5 m! Q) W/ LMastering display luminance : min: 0.0001 cd/m2, max: 1000 cd/m2
! o$ A$ O6 {- z! C! bMaximum Content Light Level : 1022 cd/m2
8 u$ |9 c' L, ^6 A- ^! ~Maximum Frame-Average Light Level : 97 cd/m2
3 f5 p! v( R: f, l- _2 J2 [
, z4 Q1 t- E" G8 |; b0 O
$ D+ i. D% _: B$ U, G( R% z
Audio
0 i. X( M) x+ [0 i) ?2 F3 _  `ID : 25 D1 _$ x+ \. q# @- t: ]
Format : E-AC-3- V) Z  t, O0 [  a, c( u
Format/Info : Enhanced AC-3
# X5 a6 \0 o5 R9 ^+ CCommercial name : Dolby Digital Plus
8 t( ]% I' _6 F& Y% c% [Codec ID : A_EAC3
) F$ G! h+ Z1 T" k. U/ s' k& _Duration : 29 min 56 s9 G6 Q, A$ a2 c  v5 m9 N; y$ ^/ q
Bit rate mode : Constant
' E! L; d9 `: H) I5 o9 kBit rate : 640 kb/s
: p" r. o  B- MChannel(s) : 6 channels2 b; F$ v2 Q" s! z. d, `: P8 Q
Channel layout : L R C LFE Ls Rs
# r5 C* Y2 U1 z/ G; B, S; c# jSampling rate : 48.0 kHz
" @0 h6 \  f/ l3 C% \! xFrame rate : 31.250 FPS (1536 SPF)
- ]; S# n# k$ U8 C/ B" ECompression mode : Lossy, j: }2 N% Q* ]8 [- q2 |$ @
Stream size : 137 MiB (5%)
1 k& t4 D3 j2 ^# b# {' fLanguage : English; U1 V# X* [$ F# M  a4 A; K9 ^
Service kind : Complete Main1 M9 a( u  a8 ^2 j
Default : Yes
# V8 `0 g/ E$ ]0 q+ |- hForced : No% k; V2 i3 i: A0 f
# g0 v& O& g! r
( C3 U& `! `5 n$ I, K3 C4 @/ I8 v9 H
Text #33
* z- h" }( p1 Y$ i2 d1 L  zID : 35
3 m# \  C/ a! `1 ~Format : UTF-8
; u) @# P+ G# YCodec ID : S_TEXT/UTF8
( @  \+ t6 \7 y5 q$ ^8 _2 OCodec ID/Info : UTF-8 Plain Text4 ^' q  G3 b) l
Duration : 29 min 10 s
9 t( Z* G. t2 h. n, G3 L* ]Bit rate : 85 b/s
5 B7 `. P5 v* M% DFrame rate : 0.210 FPS0 L7 g4 S+ _2 V& w# h: B1 z
Count of elements : 367
6 d0 w0 f# @: M6 V/ ^. J1 WStream size : 18.3 KiB (0%)1 f7 P8 _4 D% K+ I& ?
Language : Vietnamese. I, ]: f1 o4 f! g2 X
Default : No8 l9 H4 W6 L8 C, F
Forced : No2 e( C) m6 T0 Q, ^( K# J

: F6 P! H8 [+ V' p- v

1 z% c1 z* V! W1 [, nText #34
$ j3 b3 e) c( i8 DID : 36- ~8 ?7 ]$ ^) L" f$ v
Format : UTF-81 f/ S& l$ E0 c* B
Codec ID : S_TEXT/UTF8
# z: V6 s" I- `+ X; f- RCodec ID/Info : UTF-8 Plain Text
' ~. E2 V+ Z2 }, w9 T6 g! uDuration : 29 min 10 s3 ?9 P- S) q2 t/ R! r( U+ m/ M. k" u
Bit rate : 56 b/s; x4 B/ a4 }; l. d5 N
Frame rate : 0.211 FPS
  m, h# }: R" ~2 r: ^Count of elements : 369
" {8 Z4 b1 K0 s6 ZStream size : 12.2 KiB (0%)
7 c+ C+ Z! n1 U2 MTitle : Simplified0 K, W) H6 a3 g# G: z. E. X' z
Language : Chinese (Simplied)
! B$ W3 M' x! ]9 U2 E' SDefault : No
& o- n0 e' ^3 K( x& O7 e+ _Forced : No  T$ e* _3 k2 G( o; b/ e) \+ `
' c1 i1 F# Z8 W* i2 M, _0 z

" @0 [  s; w8 UText #359 x1 O: R% Y3 A  }
ID : 37
5 x, u2 u: C. h; A( Y$ EFormat : UTF-8: c! j  \- S9 X! Q* I) A! @8 G
Codec ID : S_TEXT/UTF8
* {, \( S9 n" }0 w2 W: k6 UCodec ID/Info : UTF-8 Plain Text' W8 P, @! c: z" A9 A
Duration : 29 min 10 s! Q* A3 P& j' ~0 j/ X- Q
Bit rate : 59 b/s
9 t( M7 B1 e, |  ~- ^" K9 yFrame rate : 0.213 FPS
% S. S# ~" j8 l" G7 Y% JCount of elements : 372* _7 U5 a' |7 N
Stream size : 12.6 KiB (0%)& K# y- O; L5 [7 T( k8 W
Title : Traditional
5 w' z* _5 ~( [7 U) _Language : Chinese (Traditional)
0 L5 z7 Y2 p2 o' `4 c2 }Default : No! \( y- P1 a; @5 F# V+ @) i7 O* ^
Forced : No, E( G9 c- ?0 e1 W9 N2 i$ h2 Q
8 j4 }& d) m$ [% O: K- B
! q8 d+ H0 y: e. k8 N# U! X& k! K- K
Menu
# K( }; _; ~$ c9 J  p- d$ m/ W6 q00:28:09.000 : en:End Credits

% T6 C; z! _% b3 v% e9 f
  |6 K/ c- h( a# M) e( i乔琪·斯通:梦想人生4k.The.Dreamlife.of.Georgie.Stone.2022.2160p.NF.WEB-DL.x265.10bit.HDR.DDP5.1-纪录片下载
( R6 N5 H9 {' @3 {$ {- a5 S. J
2 u& E6 ~/ L' a4 J- |" C9 ]乔琪·斯通:梦想人生4k.The.Dreamlife.of.Georgie.Stone.2022.2160p.NF.WEB-DL.x265.10bit.HDR.DDP5.1-简繁中字【2.63 GB】$ }& @7 T$ u7 `; ~0 p: n' z( H

The.Dreamlife.of.Georgie.Stone.2022.2160p.NF.WEB-DL.x265.10bit.HDR.DDP5.1-COPiUM.torrent ( 26.96 KB )

1 D8 _! T7 G4 C, S+ v7 {
2 X" O% x3 f+ J8 a6 x& R
乔琪·斯通:梦想人生4k.The.Dreamlife.of.Georgie.Stone.2022.2160p.NF.WEB-DL.x265.10bit.SDR.DDP5.1-简繁中字【2.57 GB】
$ Y$ k$ p* x1 c" V% D! Y% y( H8 }

The.Dreamlife.of.Georgie.Stone.2022.2160p.NF.WEB-DL.x265.10bit.SDR.DDP5.1-COPiUM.torrent ( 26.39 KB )


' U  x" y- c# M/ |' z  \% a: j- W$ U& E  Y/ u& L
乔琪·斯通:梦想人生4k.The.Dreamlife.of.Georgie.Stone.2022.2160p.NF.WEB-DL.DDP5.1.DV.MP4.x265-简繁中字【杜比视界】【3.41 GB】
) `1 m+ b- a4 }0 x3 ]  w

The.Dreamlife.of.Georgie.Stone.2022.2160p.NF.WEB-DL.DDP5.1.DV.MP4.x265-DVSUX.torrent ( 17.7 KB )

2 _1 u+ A9 h' B' O' r! p( e; c
# b9 Y) f, K* _/ h# W. Q
乔琪·斯通:梦想人生4k.The.Dreamlife.of.Georgie.Stone.2022.2160p.NF.WEB-DL.DDP5.1.DV.MKV.x265-简繁中字【杜比视界】【3.41 GB】
7 c9 V1 ?5 Q$ s+ r# ^4 J6 \! Q

The.Dreamlife.of.Georgie.Stone.2022.2160p.NF.WEB-DL.DDP5.1.DV.MKV.x265-COPiUM.torrent ( 17.7 KB )

1 \5 S) \) c3 p- n6 Q
3 p3 T  ]! f" p2 ~7 y# r! A

8 J  n/ J/ e- U3 x9 O
* x$ J" w8 S0 }; |% k+ H
登录 发布 快速回复 返回顶部 返回列表