开启辅助访问
 找回密码
 立即注册

异乡人在纽约4k.After.Maria.2019.2160p.NF.WEB-DL.x265.10bit.SDR.DDP5.1-纪录片

#4k记录视频#时间:2023-04-28 阅读:330 回复:0

* _# T0 _* ?. m 153650xbdbgbg1b2o6zv6m.jpg.jpg . t$ v4 G" M4 _8 |

6 D5 V, I2 g" V; ?+ l1 m% M3 Q) K$ h
2 x% B0 o0 A# ~. B8 x& \简       介

# M' d  R3 x8 m+ p
8 O$ }8 |6 J* m, r- U3 e% n& E       在飓风“玛丽亚”后,波多黎各的坚强女性被迫逃离该岛,她们在布朗克斯联邦紧急事务管理局(FEMA)的一家酒店里像家人一样亲密相处。他们在新生活中寻求稳定,因为力量试图将他们分开。( u3 W% {3 J0 t" V5 x

+ a: {& S' F0 o! e5 U6 H4 j影片参数
异乡人在纽约4k.After.Maria.2019.2160p.NF.WEB-DL.x265.10bit.SDR.DDP5.1-纪录片信息4 q( B8 R! G9 B( J) M
Video
$ K& _) _2 L7 N/ }ID : 1
( G3 c( m5 Y3 L0 E/ {. z7 A2 ?Format : HEVC
4 l' [( r* W' R4 C+ \! EFormat/Info : High Efficiency Video Coding: S; b  C6 a7 M1 w, Y  c" P0 X
Format profile : Main 10@L5@Main2 s$ _2 j. V6 l* ?/ S; H
Codec ID : V_MPEGH/ISO/HEVC
" g6 w  v1 K, D$ EDuration : 37 min 32 s
5 x+ i( ?$ i& C7 l- p2 H- EBit rate : 11.4 Mb/s9 r6 r) f* l5 B) g8 R
Width : 3 840 pixels& g" M  m/ y) @; N% P
Height : 2 160 pixels
9 Y/ w3 j+ D' v  w- t. P3 ?Display aspect ratio : 16:98 }0 W8 {- P8 L
Frame rate mode : Constant
  ]6 b: `( f# I3 h0 BFrame rate : 23.976 (24000/1001) FPS
- R8 `% u, j- R( eColor space : YUV% p  E0 h5 t8 S2 a# [1 w% ]
Chroma subsampling : 4:2:0
1 P. V0 w9 K9 tBit depth : 10 bits
  Z- m7 h8 i6 z8 fBits/(Pixel*Frame) : 0.057
) t+ a$ _* K$ F7 \/ ]Stream size : 2.99 GiB (95%)% |- k9 |$ U+ x  H6 w" n# Z* K( c1 f
Language : English
$ J* J1 t4 n& ], f3 Q. v- @% dDefault : Yes4 p. R8 K( S0 J: Z0 y7 v; F, S4 P
Forced : No
/ Y0 H8 H. A' j4 g5 s. Q  G; I) {6 U/ DColor range : Limited
8 `! K0 `, Y3 d9 {, e) MColor primaries : BT.709
4 [/ \+ d7 Q* U" L) Y3 }Transfer characteristics : BT.7099 \3 Q% K7 [: p
Matrix coefficients : BT.709
1 U1 \1 O" e4 ~7 V& c8 D4 U$ t! v" M8 P+ Q

9 o/ n7 I* Z1 |/ Y2 f# W3 qAudio
3 n+ p; r$ _2 H' j% mID : 2& r8 i2 P1 V& \) U
Format : E-AC-3+ N& i3 z2 i" K4 \  k7 O! G
Format/Info : Enhanced AC-3) i0 ]* m( {9 h& f6 z3 g& @
Commercial name : Dolby Digital Plus4 R) q1 t% S1 n% `  `4 ]% U
Codec ID : A_EAC3, F1 r* I, p$ `( a
Duration : 37 min 32 s, H  M! b$ Q; R  G6 V
Bit rate mode : Constant  \, {- D  r- V* V/ w" V; A
Bit rate : 640 kb/s
- Z3 H7 [4 A0 CChannel(s) : 6 channels* ~$ C# a& _  z+ a$ L: S1 Q! t
Channel layout : L R C LFE Ls Rs: t, e( q( I* w- t
Sampling rate : 48.0 kHz
% N/ r8 Q6 ]. i! m" S+ vFrame rate : 31.250 FPS (1536 SPF)
; F$ i6 x) @7 [9 ?' ICompression mode : Lossy+ l' ^4 K$ I& l& w. `4 i
Stream size : 172 MiB (5%)2 D+ K& _: r7 a0 O
Language : English% _& t' f" R& D. O& n
Service kind : Complete Main" T/ @% B8 V( i) w; _
Default : Yes
( b- ~& m! R! k% [Forced : No  Z5 j, Q7 A/ x# C# o8 r: t

, {7 ]% ~% v/ w+ h; v6 M! z1 A# F  y
& u6 k& @, \* I
3 f) o# W; X( V) G4 Q7 V
% Y4 M( M. R4 S3 D2 S
Text #27
4 l* B) z( H9 J. k; x3 S7 N, O, B8 aID : 29
9 \' l/ ~# @2 `" V# iFormat : UTF-8
* V8 G4 _2 V0 ?/ ^" B3 g: vCodec ID : S_TEXT/UTF8. E( ]8 c( B+ I4 P9 ]/ r8 H6 g
Codec ID/Info : UTF-8 Plain Text
; P$ Q0 g8 Q- D+ F) l; g+ B7 s* nDuration : 35 min 34 s
$ u) o, T5 W) [' S5 _# q# V% pBit rate : 161 b/s" z  L" Y8 K2 O$ f+ p3 X0 J
Frame rate : 0.198 FPS
% r! l3 y+ Y5 A0 o# E0 p% T1 t1 x! u3 bCount of elements : 423
, i0 w2 S$ ?0 r  l$ r+ m" |% eStream size : 42.1 KiB (0%)' S6 t8 K7 |+ c+ x( \
Language : Thai
$ T6 |# N' l) u2 d- \- f! ^Default : No+ l" F- M+ V, b+ Q9 x/ D
Forced : No0 [. e, C' N2 |2 ^0 Z

$ X# o; U2 d' r7 [& {! v3 @
. J% Q8 O  m: \2 f2 Q, \1 g
Text #28
$ l! h4 C+ P  T0 f  IID : 30  z" g* `/ I+ K' M) D. i
Format : UTF-8' \+ H: ~# }  i, n' ^) @" p
Codec ID : S_TEXT/UTF8
! g5 x/ ?0 m) j1 [  _+ ACodec ID/Info : UTF-8 Plain Text% ~9 j# F, R! a+ E
Duration : 36 min 45 s
9 f! a  E/ b( X5 U6 B9 ^Bit rate : 60 b/s
: X: L. P5 l+ k% A" [Frame rate : 0.195 FPS5 H( P  @) n( I- r( K& W6 L
Count of elements : 429
! ^& s1 l; n- \, O4 zStream size : 16.4 KiB (0%)
/ T. ]/ `" e: O6 ]Language : Turkish
2 }) ], |! ~* x* ?. [, mDefault : No2 n9 ^& m, `5 }
Forced : No
2 G1 z6 |2 `+ K
! r( Q! N- \; c. t! U' V; U
: i7 k9 H' i" P, b
Text #29. Z; s# x4 E9 N& w$ Y, p# o
ID : 31
; U2 S- e! u% Y% G4 vFormat : UTF-8  G3 k% U! i/ L! n& w* }5 s
Codec ID : S_TEXT/UTF8" o5 \$ q+ S5 t0 Z
Codec ID/Info : UTF-8 Plain Text: J" k0 c4 l7 c& Z
Duration : 35 min 34 s! V2 @  v* L( K" q
Bit rate : 87 b/s4 ?3 Y1 \  P" T: S; ?2 p" M
Frame rate : 0.198 FPS  r. b! o2 r. E
Count of elements : 4226 Q( C8 F8 ^# H6 ^' E$ ~
Stream size : 22.8 KiB (0%)
3 `+ N8 T. q$ h8 T7 wLanguage : Vietnamese1 V  W2 `, J' c4 M8 q
Default : No4 R. y- ~! L5 E$ q
Forced : No
0 O$ X' X$ w9 n2 o) D& k* @
1 r( S( i4 ?+ e" ^( f

; E" {" n/ s/ k4 p( K2 EText #30
" q! q+ q8 b* R% q8 j6 {; G8 x2 }ID : 329 l- T+ k- L! c7 @
Format : UTF-8: p$ q8 G# I3 X: y# O
Codec ID : S_TEXT/UTF8
# R+ v8 t# O: aCodec ID/Info : UTF-8 Plain Text
5 E9 K$ m4 ^- F& u2 n& f0 gDuration : 36 min 41 s0 z- E- @3 m- U+ {. Z
Bit rate : 58 b/s8 w5 O  D' q6 c! v& c( D
Frame rate : 0.199 FPS
4 s6 I7 Z$ `2 r  T+ x& FCount of elements : 438
: r) A: |& q+ z/ j4 CStream size : 15.8 KiB (0%)0 e8 y7 U6 R( n
Title : Simplified
7 T; i7 d  w9 `- r5 L# uLanguage : Chinese (Simplied)
# r4 P3 ~% H1 K& H3 n# [Default : No- i: e7 i: ]/ |0 v3 {* S: R
Forced : No
: T4 z" H( r  Y9 ?& T5 r. K. F6 I7 G4 A, P+ V9 S- A' p* }4 E

1 z, p  U* ^/ u1 b% G/ VText #313 B$ Y+ A4 P8 @" ^
ID : 33
( `' K+ M! x: dFormat : UTF-8* W0 A1 u  T0 Z( t* n' ]/ Z0 _
Codec ID : S_TEXT/UTF8
' Y, c2 o* v+ T, FCodec ID/Info : UTF-8 Plain Text* `; K& _* Z9 E6 x) K: R1 B
Duration : 36 min 44 s
! c' b" E) f1 ?, V/ f% n2 FBit rate : 57 b/s4 C" x5 U# y! Z( N
Frame rate : 0.196 FPS
/ z! }) V; ~$ N& {. qCount of elements : 432
4 I, ~0 p$ p% l! Y- i6 h& OStream size : 15.3 KiB (0%)5 D% s. k5 L$ x
Title : Traditional
1 p4 w' R+ D8 F) S( D1 C1 r+ ~3 D& q- eLanguage : Chinese (Traditional)
/ `: {9 C$ l( B; ^Default : No
; n$ n+ `& \3 V" G0 X: {Forced : No  a# G3 q. ]9 Y9 G4 u$ M/ m! E
( ^- t' J- r$ r  Q$ x
, ]# Q# W, C& \$ N+ R2 h
Menu
- Z1 I, h& i% U3 ^; H  d9 X00:36:02.000 : en:End Credits

) a$ W8 v8 A" f2 _5 p
) Y) A- o- {) A4 \% t+ W5 B" n7 T1 N
4 r+ y: u- P3 y- t- g
异乡人在纽约4k.After.Maria.2019.2160p.NF.WEB-DL.x265.10bit.SDR.DDP5.1-纪录片下载3 V; i7 p5 w. v! s7 T2 v9 R$ a
5 _/ y  v/ g7 D" Y
异乡人在纽约4k.After.Maria.2019.2160p.NF.WEB-DL.x265.10bit.SDR.DDP5.1-简繁中字【3.16 GB】4 Z7 g3 T7 M# b" Z

After.Maria.2019.2160p.NF.WEB-DL.x265.10bit.SDR.DDP5.1-NewYear.torrent ( 16.43 KB )


1 P- l( F" _( N8 [9 k  }' _# d- h0 K0 C" p/ g* l

  {' ]' T# ^; z5 p
6 E, T% o/ s4 J
登录 发布 快速回复 返回顶部 返回列表