开启辅助访问
 找回密码
 立即注册

突袭之后4k.After.the.Raid.2019.SPANISH.2160p.NF.WEB-DL.x265.10bit.SDR.DDP5.1-纪录片

#4k记录视频#时间:2023-04-28 阅读:370 回复:0
( w" W, B5 }* K. O# A
153953w7ui6gbkhgqqyq6i.jpg.jpg
* [$ h  M3 X7 i3 O3 f8 J6 ~
$ m5 L7 y* V6 l. ~8 H, v简       介8 [% \& Q3 w: ^& s
# d+ ]% D! S' |, i# B/ b  i
  小镇遭遇了一场针对移民的大规模突击检查,这不仅严重影响了镇民们的情绪,还让这些常去教会的人们开始思考一个复杂的问题:爱你的邻居究竟意味着什么。
) u/ k; z$ d8 F6 b0 b* V

7 B) _2 Z. E  Z. k影片参数
突袭之后4k.After.the.Raid.2019.SPANISH.2160p.NF.WEB-DL.x265.10bit.SDR.DDP5.1-纪录片信息
; J, l% z% j6 yVideo
$ g; ~+ R# {7 k0 ~ID : 1
! s5 N4 |8 Z$ o6 c. i& g/ Y  aFormat : HEVC1 {7 k5 o7 ~( x% v
Format/Info : High Efficiency Video Coding& f& T& Z- o" |7 w: A
Format profile : Main 10@L5@Main* L6 U! E2 x5 e5 [7 T+ ]& h
Codec ID : V_MPEGH/ISO/HEVC
) ^/ W/ N! a  S- ]Duration : 25 min 7 s2 d1 k1 d; x; {0 X1 v% B/ v1 D, v
Bit rate : 11.1 Mb/s, y* l; D/ P: k# z$ V
Width : 3 840 pixels
5 [( l8 X( x; }# uHeight : 2 160 pixels; {5 ]2 r8 d) [5 w" C6 |% T
Display aspect ratio : 16:9/ C) ~6 s  G! \. P6 ?" }
Frame rate mode : Constant
5 Y/ J$ L. l1 \7 C3 I  N+ S! _! MFrame rate : 23.976 (24000/1001) FPS
3 s9 g8 N" X0 F; l- [Color space : YUV
# l% N" I2 X# E, YChroma subsampling : 4:2:0( p0 E* K" `8 l' @
Bit depth : 10 bits$ ~4 ?4 u6 q& t& m2 A& H
Bits/(Pixel*Frame) : 0.056* t# \) J" _) {) j/ d6 c% U4 U
Stream size : 1.94 GiB (94%)* Z! V( N$ t/ i4 |' F
Language : Spanish# ?( u) C; {& U1 W7 Q
Default : Yes# \; q) e! G0 ]: Q
Forced : No
) T5 a' A# _3 x4 vColor range : Limited2 `* E) X: m7 E) ^4 p
Color primaries : BT.709! j( \0 E. i  P
Transfer characteristics : BT.7090 ?/ u* E: N( d# a3 J/ X; P3 H2 J1 `
Matrix coefficients : BT.709
  _9 ~! A. |) ]/ y, ~9 B/ ^0 f5 _, l/ T) a) O( S

* w* o; f- n. b2 V; d% y: _: GAudio0 p5 a$ o( ?7 ^. M# c; l2 l9 N
ID : 2
8 ~# J7 I) b( u0 z+ C) [! DFormat : E-AC-3! s4 J1 X/ r2 H5 w1 T, O
Format/Info : Enhanced AC-3
2 S; A8 q$ e, G* [8 lCommercial name : Dolby Digital Plus
% ?  S2 g" M# i& {# zCodec ID : A_EAC3
: r- U# Q$ i4 W/ B  i0 M& nDuration : 25 min 8 s
4 u, R; u, X& p( ABit rate mode : Constant
' O3 a/ d0 o2 F  GBit rate : 640 kb/s
9 E$ a1 I+ _. MChannel(s) : 6 channels0 ], X* r: @* n6 E: r
Channel layout : L R C LFE Ls Rs" Y1 c0 S+ C/ j. p3 Z
Sampling rate : 48.0 kHz- @( B. [. d5 k' V- J, P# y
Frame rate : 31.250 FPS (1536 SPF)4 F. v* ]8 x5 J/ W/ J# B# `
Compression mode : Lossy
! d1 H* g$ m" |& x8 U* H+ lStream size : 115 MiB (5%)
  e! G! J+ a$ J* r. u$ HTitle : Latin American2 U0 X4 @$ E/ F' Y: W& S
Language : Spanish (Latin America)
; U1 p! k) Y; n1 p& @Service kind : Complete Main! a. k8 e. m  R" c
Default : Yes
' S3 w3 a& V3 t9 A+ Y2 HForced : No( m6 u( b4 K9 E$ J/ r
3 o& b5 Y' o' M) z: ~/ M& o
# E8 y# C  `3 @$ L" a: Z! f. D2 l
1 x7 J# F* n2 h' Q7 q2 ]8 U
) d1 u0 r$ H; ]2 i  L4 \* b  i* h/ b
Text #21
( z# H% s0 q+ ~, Z3 q; |1 ~ID : 23
) i+ G5 u8 C/ `8 E2 ~: P% h" qFormat : UTF-8
/ o- e, u, L( i/ r: pCodec ID : S_TEXT/UTF8
$ g" Q8 x+ P2 x+ l7 N. `! FCodec ID/Info : UTF-8 Plain Text
8 u# \& l& m$ }* I( N: s  N( ZDuration : 24 min 28 s  F* p% z- J9 F9 D+ l1 ~8 d( E
Bit rate : 54 b/s# R! v, Z0 t4 l6 a
Frame rate : 0.181 FPS
3 J! t6 I4 w6 y3 l7 M/ v$ @/ |Count of elements : 266
- |3 [" D' `" W& [" \Stream size : 9.78 KiB (0%)' e6 w3 u# ^* ~' _$ B5 _- V
Title : Brazilian
) _  a7 r: U$ yLanguage : Portuguese (BR): h9 S  M  s) W( u' B
Default : No
& `& n0 A* U* @) y- r: u/ jForced : No+ e& Z6 }! L: }2 U3 x0 ]" w* r5 G
- D: T# f, [! F% A
, G& {/ t" Z  V' `: G" l/ |; W
Text #22
! g# W) z$ N2 f, SID : 24
+ C1 E# `4 R9 P  ^& m& q4 A7 OFormat : UTF-8
3 q, W1 z; _4 s9 Y$ t8 jCodec ID : S_TEXT/UTF8$ o) z9 H% q0 ?0 Z* H& a
Codec ID/Info : UTF-8 Plain Text
0 Y, W4 J$ j) c1 pDuration : 21 min 54 s" B$ M. A: Y+ q( ?/ J! l
Bit rate : 61 b/s0 j' _) a- O  n8 I0 j1 F0 y# h
Frame rate : 0.196 FPS! \: @5 ^& c) C: b+ v+ B
Count of elements : 258
! l/ ]' l5 J* W2 k; m! D* E$ Q1 YStream size : 9.82 KiB (0%)( v, ~9 ?- X/ G% o
Language : Portuguese (PT)
, `" P& E1 O  s0 z4 s7 M: m  Y9 Z( GDefault : No( ]* l+ q" {5 Y! u( L0 v8 I
Forced : No! j! ?4 J1 c' Y, ?! t& w

3 p, d# O" C3 n& B) f3 Y

, C! |: n# _0 r# t6 GText #23+ D. P/ t+ ^$ ?
ID : 256 e$ S+ A3 }; q$ i- Y1 `$ T( T1 K& c
Format : UTF-8$ T( u8 Y* i! H: A# l* P4 a- o& @
Codec ID : S_TEXT/UTF8! R( D# ~' l- ~) P& s& @
Codec ID/Info : UTF-8 Plain Text
5 J8 K2 d/ M/ M; R' `/ N0 R' SDuration : 24 min 28 s
! Y9 J) s5 x% P! j5 ~Bit rate : 60 b/s$ B2 j; L" I: M  ]( \: ?
Frame rate : 0.170 FPS
! i/ t  j2 A( v, iCount of elements : 2498 q# N7 S" n6 S% c5 B$ }+ y4 U: T
Stream size : 10.9 KiB (0%)5 t. m6 \* J- B0 W  v! \
Language : Romanian
. O8 t9 ?, r! ]9 }( i7 O$ dDefault : No
7 t8 `; P0 x; T( w  U1 DForced : No
7 O  A5 r' M/ g& Y$ I, b, x; k2 c  Z  H: Q) ]/ q8 D, L( X
  M; M! b  f$ Q4 ]; w
Text #24  }: {& e" D" d: ^. u
ID : 26
* n" |1 z5 ^# p8 J0 \, HFormat : UTF-8
/ W1 n5 |- J3 r9 X/ JCodec ID : S_TEXT/UTF8
5 @1 ^% T7 e; ECodec ID/Info : UTF-8 Plain Text
3 d: @, r/ p! n$ i& m+ _. kDuration : 24 min 25 s
7 z9 w* z% A& TBit rate : 86 b/s: |- P, ]% \* Y# q7 r
Frame rate : 0.179 FPS
6 }6 |' i2 Z4 H( rCount of elements : 262
% e+ B( L. N6 o0 cStream size : 15.5 KiB (0%)6 V0 W' b7 u, p- F! y/ D
Language : Russian" p5 u  V$ b( S. W: v, X8 x5 Y
Default : No
0 S" w# j. m8 d0 |* eForced : No
4 Y1 f9 F! m3 f7 X* h' I
5 `! {. d! N$ P+ L' O6 V- X% F: V0 Y* x

0 k/ S4 K$ a* J0 T# n( Q* ]Text #25$ P8 N& @/ Y6 G& ]1 D. `
ID : 27
; K: N0 M$ f" x+ I4 `7 f" iFormat : UTF-8
! {8 Z) H; G7 Q) y8 FCodec ID : S_TEXT/UTF8" j3 V9 I" z* O3 F
Codec ID/Info : UTF-8 Plain Text# C. a# J8 L: a1 t1 ?: j
Duration : 21 min 54 s
0 a! U2 s% |0 v; rBit rate : 57 b/s
% R4 G( G3 @/ FFrame rate : 0.161 FPS
2 n4 Y) d: B7 |8 Y' e- y( YCount of elements : 212
- _! M5 w/ S) r! R. j# A' qStream size : 9.21 KiB (0%)
" C7 Y, {  _, y# `3 L# lLanguage : Swedish
# q5 g. i, d% ZDefault : No
  S6 k, D  e9 E+ k2 kForced : No: W: b, j; n  E* F" r8 v& H; Q5 F

& p3 o+ T8 n7 q9 [. k) K
0 m7 K7 u" ~9 `/ `7 K, ]& X# W
Text #26$ b" ?# @% n- A& \. E* M
ID : 28
8 V( }! k6 L+ R7 ?+ Q& zFormat : UTF-8
3 r8 f/ n: f$ R4 o4 ^! I" J- sCodec ID : S_TEXT/UTF81 {0 |$ Z" X! U
Codec ID/Info : UTF-8 Plain Text
5 t2 r' K: z) qDuration : 24 min 28 s9 W( z% M/ C- _
Bit rate : 139 b/s
, @/ W) \; @/ {' d: J  MFrame rate : 0.183 FPS
' O. p' v/ j8 y- f4 @' H; jCount of elements : 268: \: ?. Q  ~: c
Stream size : 25.0 KiB (0%)- W# y/ i  p; q. a: @3 n- \
Language : Thai: ]4 q9 L3 B/ A; c
Default : No
) B3 i) ^6 G5 Z+ [% {; tForced : No
1 }$ R, F+ w# I. V+ t. Z8 l6 _4 h1 U/ `
' x2 a  L' r; c9 n6 ^
Text #27
7 e7 [- Y% h' u" q7 z  f" cID : 291 e$ d: u% J: q, s# x
Format : UTF-84 G, i* J5 T) Q) X5 X) R
Codec ID : S_TEXT/UTF8- ]& \8 T$ S6 U$ \
Codec ID/Info : UTF-8 Plain Text
$ M9 s# @3 W1 i" H2 W+ @: s# f6 SDuration : 24 min 28 s$ A8 M2 q8 P* e: c* ~: z) p
Bit rate : 50 b/s. U/ j- @! l7 N% X; I
Frame rate : 0.170 FPS
1 N, e! q+ R. p6 j" CCount of elements : 250
% X$ k  P' }3 H6 j4 h% ]Stream size : 9.11 KiB (0%)+ c2 E* |  J% |5 {  [' A$ l+ s
Language : Turkish) E9 G, k2 d0 o) S1 T
Default : No" p  V/ I2 t$ p/ S8 M9 p
Forced : No5 a" ?* `6 M, Q1 s
2 e0 Q2 X" W% V! E- d

0 N! F: t& u8 k% UText #28
$ j. C6 s, K  w. RID : 30. D+ r: u( \- ]6 o# l3 |- {' G
Format : UTF-86 `; E  j' p4 ?0 c0 m: k
Codec ID : S_TEXT/UTF8) O5 A0 Y- {2 Q: A
Codec ID/Info : UTF-8 Plain Text, O* u, Z2 |: S
Duration : 24 min 24 s
  v7 s* l. i. q: G8 pBit rate : 81 b/s
5 @) n+ F! ?9 t5 }( }- hFrame rate : 0.182 FPS
5 K, ~( K1 O( WCount of elements : 267
; N1 ~2 c+ {1 l( ^& b4 ~Stream size : 14.6 KiB (0%)# I3 @( P! J7 B1 X8 Z) J
Language : Vietnamese
! x( t$ t' Y$ X) s) {Default : No
: b) W4 s! {% o  R. z, \Forced : No
" _5 R! S) `. f# P0 E8 b
+ m( w' @) L) t3 h5 o+ E

( N% e8 L: c" VText #29+ p* k$ l/ a( G# Q0 M( y
ID : 31
* U6 h6 w: w9 gFormat : UTF-8
( D- G$ R0 o( NCodec ID : S_TEXT/UTF8
0 z1 S. D' s! ?Codec ID/Info : UTF-8 Plain Text" N0 N5 g  o. P, Y- s
Duration : 24 min 28 s
8 d3 b, W9 B$ d/ p2 U1 ZBit rate : 50 b/s
4 @5 ^# c; W  m1 l, t7 [% uFrame rate : 0.173 FPS1 X$ n) j% R; K7 n3 _# \4 A
Count of elements : 254
/ V6 |% `6 O: ~2 a) B" yStream size : 9.07 KiB (0%)0 K' I  Q, U, t% d2 _: n# _
Title : Simplified
$ s. \7 r( n  r, T/ W  m) t  q% \Language : Chinese (Simplied)
& {1 q  I& f0 Z1 o( _0 U$ fDefault : No
' e# N* L0 t7 tForced : No. I. C# A3 z* H

/ O0 p8 D8 b" g# J( t; p' {- f/ o

! f0 z( z, Z( I0 E  {1 M6 z4 xText #301 r8 I- ^. T0 v( E$ ?5 ^- R
ID : 32
5 s; g# d- R* B% gFormat : UTF-8* \% x9 c+ T' g: F# j  T" d/ ^
Codec ID : S_TEXT/UTF88 `1 h4 n7 V: S  D3 q
Codec ID/Info : UTF-8 Plain Text
4 h( e+ a/ w9 Y* vDuration : 24 min 28 s9 n+ J1 _0 h9 C* w* Z# X, t
Bit rate : 48 b/s
( i# I+ }) J% `1 TFrame rate : 0.183 FPS2 u3 s( D, A8 X% W. l3 T3 k$ `
Count of elements : 268: J5 }) ]; f  n( V: b8 v1 ^& u/ ]/ i
Stream size : 8.73 KiB (0%)
" H3 J7 ?) y! J( o. C0 u* wTitle : Traditional
1 Q0 u9 ~& b% E3 fLanguage : Chinese (Traditional)# O5 @9 @6 q( N8 U. s
Default : No( m3 n# ]3 J+ p0 O
Forced : No
2 r; _3 d8 a  L
2 F4 _+ g/ q* I
9 {" J- m9 T9 @, V. B
Menu  v& Z4 g& }3 C4 n3 f# }7 P
00:22:12.000 : en:End Credits

( [- Y: ?  [; g8 ]9 t4 l) E) d% o3 u/ o* M
' A0 m; s5 l2 c6 r6 |5 V& o
突袭之后4k.After.the.Raid.2019.SPANISH.2160p.NF.WEB-DL.x265.10bit.SDR.DDP5.1-纪录片下载
) G9 w4 @% g- l, ~
$ w' n5 P" ?* Z& C; C- ?9 o: D7 u突袭之后4k.After.the.Raid.2019.SPANISH.2160p.NF.WEB-DL.x265.10bit.SDR.DDP5.1-简繁中字【2.06 GB】" K2 I& x* H- V* k/ W1 L

After.the.Raid.2019.SPANISH.2160p.NF.WEB-DL.x265.10bit.SDR.DDP5.1-NewYear.torrent ( 21.23 KB )

. R, v5 ?: x& e
  \2 e/ C6 B; A2 T" w; l

* Z. T2 ?/ f: N4 p" n! W9 g; ^1 x7 X0 g+ H7 M8 z! _$ l
登录 发布 快速回复 返回顶部 返回列表