开启辅助访问
 找回密码
 立即注册

突袭之后4k.After.the.Raid.2019.SPANISH.2160p.NF.WEB-DL.x265.10bit.SDR.DDP5.1-纪录片

#4k记录视频#时间:2023-04-28 阅读:256 回复:0
( K, w2 b8 l9 v# c1 [* y
153953w7ui6gbkhgqqyq6i.jpg.jpg
  k* N$ f" _! K5 _- n4 p/ m0 e' ]8 v  O
简       介; w2 C2 i& X" u2 |. [. L

% j+ e# N: d* `* D! C1 \& E* ]* K  小镇遭遇了一场针对移民的大规模突击检查,这不仅严重影响了镇民们的情绪,还让这些常去教会的人们开始思考一个复杂的问题:爱你的邻居究竟意味着什么。
# c  G8 ^* Q$ |0 x5 Q: u0 V

+ S  s. B+ J! V  ?影片参数
突袭之后4k.After.the.Raid.2019.SPANISH.2160p.NF.WEB-DL.x265.10bit.SDR.DDP5.1-纪录片信息
: E+ v1 b8 a9 n* j) UVideo
' T* u; }9 s& T6 Z; N0 p$ g2 sID : 11 d$ G8 q& a3 I* K7 |+ C2 t  m8 b
Format : HEVC' G8 }' W  d7 u3 [5 v$ b8 T
Format/Info : High Efficiency Video Coding
; E" J0 w# X$ D* sFormat profile : Main 10@L5@Main
% Q, i& d. ]  r; gCodec ID : V_MPEGH/ISO/HEVC2 }( e1 @: w! }. |% x
Duration : 25 min 7 s
8 T4 n. w7 ?3 W1 ]- p- T. X, P3 T4 U! lBit rate : 11.1 Mb/s  Z* z& h5 |  Z  L1 J
Width : 3 840 pixels
, s* [4 b" O; \Height : 2 160 pixels. l; R; a1 b- ?4 j' p
Display aspect ratio : 16:9
8 m3 N6 d6 N9 G5 m( A0 X' x' l- X$ \Frame rate mode : Constant3 w! z# M$ P! ~- F- ^' W2 v
Frame rate : 23.976 (24000/1001) FPS( }; ^; ^, W0 X3 X0 e" ^& E
Color space : YUV% [8 x4 \5 l! F- @/ U: a/ }) }' @. ?
Chroma subsampling : 4:2:0
4 L- _! j$ G0 l; d8 e! uBit depth : 10 bits& H; I9 |+ c: I& N3 F
Bits/(Pixel*Frame) : 0.056
" }" F# x; K/ |) k5 W; q) DStream size : 1.94 GiB (94%)( v( }2 c$ `+ H
Language : Spanish
0 x& t% v# K2 tDefault : Yes' B, {4 g! w% x5 T
Forced : No2 ]; d0 H  D3 {  w7 R
Color range : Limited) M! H7 r% h# L8 _- h
Color primaries : BT.709
8 [! f3 b0 i* _7 P) S. @1 pTransfer characteristics : BT.709
4 F" N& A2 `; ?8 O# f- O  N. eMatrix coefficients : BT.709
+ j) L) b. M3 V  ]5 K1 \& ~, k2 b% O# n, U' M& s/ N5 L* O& O
1 y) s0 J  U4 c
Audio
* d  f; `3 w  I2 hID : 2
' w- O! x  y3 B8 C$ JFormat : E-AC-3( n, l. n. U, V
Format/Info : Enhanced AC-3
7 N" T0 v2 @7 ?Commercial name : Dolby Digital Plus) g) ?* @* z* M; w
Codec ID : A_EAC3
' q9 Z8 Z# z  z0 W# [3 |Duration : 25 min 8 s
" f3 k4 Q3 G+ sBit rate mode : Constant' ~5 l% u  d- I% c
Bit rate : 640 kb/s
6 E( `# j- t+ F! IChannel(s) : 6 channels- |1 v+ N, h6 P  P% [% i
Channel layout : L R C LFE Ls Rs: P' ]) V0 z6 T+ @, l8 k8 F
Sampling rate : 48.0 kHz
! H; M& h- p7 L' {! E* u2 |' S3 z: SFrame rate : 31.250 FPS (1536 SPF)- D0 p4 D6 K# f0 c; N0 N  D
Compression mode : Lossy
, ]# j( G+ e% t2 zStream size : 115 MiB (5%): T9 A& i5 N' }% n4 z1 p
Title : Latin American5 D2 ~( a  P% p* m
Language : Spanish (Latin America)- H7 T4 b4 Y" u
Service kind : Complete Main- l$ R# [  G6 e. p3 `
Default : Yes! \( {" n8 X- _, y/ E# \
Forced : No
4 u8 X4 F+ Y( S; {% }0 C
- [) z* z: j  ^: _; V$ Q% k

; ~$ A, A, Y) K; _) ~
8 ^" ?2 ?5 A* [$ [

2 U* k9 u6 e9 u, H; k2 J8 fText #21
- [% G$ x9 i3 P/ p2 i% k! E$ KID : 232 ~) e3 r; w0 Z6 f8 V: y! n& b5 u3 f
Format : UTF-8  n0 ?; ^: k. z1 x9 b4 S' Z
Codec ID : S_TEXT/UTF8) ?0 _  g) [6 w* z) F
Codec ID/Info : UTF-8 Plain Text
0 x0 I- y+ x4 nDuration : 24 min 28 s
! n4 H1 M5 j4 D; TBit rate : 54 b/s
, r; r, D; E. t" M# `& WFrame rate : 0.181 FPS
& T/ l) g8 L  |: \: y* m( |( zCount of elements : 2660 ?  g8 M: k! I5 U
Stream size : 9.78 KiB (0%)
* C/ e$ j; l  ]7 [; A! h+ D; Z2 \Title : Brazilian
3 F+ @! N9 d9 }$ Y) i( qLanguage : Portuguese (BR)
# Q3 @8 E) Z( x- b8 d( u, l: pDefault : No8 X9 s1 u; X* V, F$ {2 j; j& ~% Z! f
Forced : No
) b# d% f3 F- ~! ?
* O# o3 N+ O7 h$ a6 k7 k! A
& {1 j  F1 g- z
Text #22( R/ m' q6 S) h: S. h2 f
ID : 24
* C* M( I: b# D" q# J0 RFormat : UTF-8
/ b0 s; e1 [$ p2 C) lCodec ID : S_TEXT/UTF8( C$ \1 ?% I5 \- R
Codec ID/Info : UTF-8 Plain Text2 h; t$ s1 E4 U* V8 n$ l
Duration : 21 min 54 s# n+ D& d- V6 S' m0 m+ ]( _
Bit rate : 61 b/s
3 q1 P" y( T; @8 oFrame rate : 0.196 FPS$ p  Q! Q4 P( D  Z
Count of elements : 258
' s$ P. C* R' W0 E& v/ Z. r( `; T6 xStream size : 9.82 KiB (0%)1 k- l$ \0 y( Q: T+ p, h
Language : Portuguese (PT), j7 D0 m$ M0 k+ `
Default : No
- L" ]9 {1 i1 ~, w8 hForced : No+ v$ n6 C1 a. T7 i$ V; D

: U( b% X4 k" p, K+ W
$ p  O8 Y7 c$ n
Text #23
" B( x5 j) A% D1 U5 VID : 25
7 |" A5 B+ r* D8 y3 |Format : UTF-8
% }4 y4 _6 l( U) ?+ FCodec ID : S_TEXT/UTF8( k" ^6 T  g9 J( o% ]' N1 P
Codec ID/Info : UTF-8 Plain Text; k$ j& U# `6 T: n& B
Duration : 24 min 28 s/ u9 V- x% q% ]2 W7 u
Bit rate : 60 b/s
" j: ?4 q- Z/ }" O3 G% g# VFrame rate : 0.170 FPS* N2 G" b; L( y2 v6 Z: g+ C
Count of elements : 249
+ H$ r( R$ f4 b2 v6 z! cStream size : 10.9 KiB (0%)  ~. P0 |5 z, p, R% p) }/ v
Language : Romanian) n6 e% [/ }8 B; K: m4 u. Y2 _
Default : No9 x6 ]0 P. ^2 J- {2 z1 j
Forced : No
5 S" ]' B! k9 T- m+ C* ~: M- c$ d0 `* D- L
# j; t- |! s0 i. Y" i
Text #24
( i0 r6 t( [5 G% Q  V, dID : 26
9 @0 n0 B. \2 o. \1 @7 ?# XFormat : UTF-8) U6 n/ I) T& x* P
Codec ID : S_TEXT/UTF8
" v8 [! _$ v" N7 B! R1 r$ H( fCodec ID/Info : UTF-8 Plain Text
( ^& f: {. x+ A) \+ lDuration : 24 min 25 s
3 ^8 U  }5 l* D. D: ]3 R. m$ j2 z1 CBit rate : 86 b/s
4 E2 n* J( V. G; m) z5 BFrame rate : 0.179 FPS
! |( Y4 a/ t/ F4 m; ICount of elements : 262
* w# T- Y& k/ |: v, ~Stream size : 15.5 KiB (0%)2 X6 ^+ q5 f! {* e
Language : Russian5 A# q: n4 L7 p) V$ U. U
Default : No
6 m* u4 v: c* Q: X* j8 IForced : No
. e1 q3 {, S9 q+ w2 q+ e, t" Z, T7 r( x
9 c- `2 Z, X5 h. M# L
Text #25
8 i, d7 @: |" O/ S$ oID : 27: o1 l( c+ D) ?- w8 q/ I- ^# W
Format : UTF-82 Z4 `) h0 r% b; M
Codec ID : S_TEXT/UTF84 G, c) C1 X+ l& X% c; y( y- H
Codec ID/Info : UTF-8 Plain Text9 x/ ~8 J$ X& }- p% i
Duration : 21 min 54 s8 E# G. _, q0 g/ }
Bit rate : 57 b/s
2 @+ x3 ~% ?8 P1 U1 L! R$ a1 pFrame rate : 0.161 FPS+ O' q4 x: s# U& h: n
Count of elements : 2126 N% e* _# G1 x) j2 {
Stream size : 9.21 KiB (0%)
: I) I. D6 C( K1 F' N& p& t" MLanguage : Swedish
* i+ y' B6 {/ r8 b9 MDefault : No( U# B2 ~8 C  u) m0 i
Forced : No! B9 l# l% j4 R( d7 P4 E1 t& R

) s, U2 s0 j) \: k  c8 U2 v

' \2 O* S; [! bText #26
$ z6 Y7 y; K1 MID : 28
2 W3 R: X6 g) [0 U4 tFormat : UTF-8
2 J% R$ X0 o6 w8 w, N+ R9 T" ^Codec ID : S_TEXT/UTF8
: f( X. A3 b& qCodec ID/Info : UTF-8 Plain Text
( N+ d$ y& j, b* J2 R! h  J( ^* GDuration : 24 min 28 s
5 T) d1 E8 R; l$ n& i5 yBit rate : 139 b/s" @9 U4 P& S) X# j
Frame rate : 0.183 FPS3 ^. _1 o  t' k+ n6 n! `$ V8 T, b
Count of elements : 268! T* l. l7 p9 Y6 I- s
Stream size : 25.0 KiB (0%)
) D- ^8 X0 ]% Y7 [' E- wLanguage : Thai. [/ g% w" U# F' F( t  A5 E
Default : No
8 H; \& x- @1 W0 O8 ]- QForced : No  Q4 L9 Q$ Z) R, u
" B0 O1 X( e: z

) A2 T. @+ [* u8 w) O: MText #27
3 ~9 B6 e. |2 N- \) a4 R7 Z: L/ M$ jID : 29
- B$ x0 N1 L$ q) g% ^4 ]( TFormat : UTF-8
  u9 {7 ~" u' |4 HCodec ID : S_TEXT/UTF8
! ^% i+ @5 D) N) ]1 V! SCodec ID/Info : UTF-8 Plain Text) v" A  b0 o' J& i4 h4 D; P
Duration : 24 min 28 s
% d4 H+ [( P$ _4 ~1 WBit rate : 50 b/s; {+ p4 I3 k5 \7 t& m/ W5 X2 ^
Frame rate : 0.170 FPS
& y. }* l4 X3 v* n' {Count of elements : 250
7 Z5 B8 O5 z2 T) h) YStream size : 9.11 KiB (0%)2 v9 p2 y* v$ P8 b
Language : Turkish9 M+ ~  j/ p6 a0 O' K8 X# k+ L
Default : No
$ }& Z+ i( n  S' M0 {  o" S3 y5 X0 lForced : No
% }8 \0 P: Y! _5 ?: Y: ?" u
; C* |- v7 h/ v1 }7 }1 E2 L6 b0 g

! {8 {& a. B$ j9 ]Text #28
. T( N# y- l% \( N/ r; ~ID : 30
5 s, n+ ~1 |8 E& w4 a. sFormat : UTF-8
( J- R8 T4 Y0 G5 v- KCodec ID : S_TEXT/UTF8$ k/ c: G8 N% w' M9 n" }; ^
Codec ID/Info : UTF-8 Plain Text4 |$ R$ t2 G4 ?; E  U& N
Duration : 24 min 24 s; L# l" M" i, v/ V
Bit rate : 81 b/s+ {" ~/ j9 N& u+ H
Frame rate : 0.182 FPS
& U& L* K3 v! Y6 V/ ]; mCount of elements : 267
* v2 q* H$ c% p# @2 g& ?Stream size : 14.6 KiB (0%)* j" X- T& ^& Z) z+ U: A
Language : Vietnamese
- g6 [$ p, B2 q$ M; PDefault : No5 _1 p  c1 L% E
Forced : No
$ ]1 t, p4 }2 Q4 a3 x" Y! \3 a0 e8 |. x4 |
4 L" Z# `, E- a* n4 |
Text #29
+ K5 w' b7 c8 M( ?8 DID : 314 }* f1 Y  Z" d( [4 |( E9 I
Format : UTF-8
- ~5 c: b$ W2 ?8 v# I0 ?Codec ID : S_TEXT/UTF8
& f3 w6 y8 y" PCodec ID/Info : UTF-8 Plain Text/ O- s+ L7 i3 Q/ [) J
Duration : 24 min 28 s: p% b. {6 B9 U7 Z* @- U9 w
Bit rate : 50 b/s
. S; z, h: Y# V2 i& k& h9 v2 ^Frame rate : 0.173 FPS: u) y  e( e9 R: z6 s* O. k
Count of elements : 254# s- p. H9 |  q: o* K; h" ]
Stream size : 9.07 KiB (0%)" f  z* r' _: x5 k
Title : Simplified+ h- |3 B; F4 T. X  h) i
Language : Chinese (Simplied)
" E( I  @9 r2 k, q5 _Default : No: z9 Z. l- u  J1 m
Forced : No5 k# o- j& Z; m6 U1 X( z
3 D7 d/ K. w& T

2 C- `' x, Y* xText #30' ]2 f: O3 x6 f) r9 \
ID : 32
/ H5 G* f% q6 T5 ]5 wFormat : UTF-8
1 C+ o. Z/ S$ oCodec ID : S_TEXT/UTF87 J3 d, @! e8 N  P
Codec ID/Info : UTF-8 Plain Text0 `  {& t- M9 f2 t7 R: a; d
Duration : 24 min 28 s
6 i9 F2 n. w; d2 }; Y: ABit rate : 48 b/s
* Q0 h, Q" p, j4 _Frame rate : 0.183 FPS& c; K. C1 |7 G" }" G$ C
Count of elements : 268
8 g( Z+ F" H7 F* u* q: @% TStream size : 8.73 KiB (0%)
$ u3 T& T; |. d& N% cTitle : Traditional9 {- v1 T: B+ y  u. p. c; K2 e, O5 l8 C
Language : Chinese (Traditional)
8 C9 W/ X& ]+ _% oDefault : No8 ?6 j& Q8 [, o3 v4 O
Forced : No- ~4 u9 l+ B3 U* d3 R( I8 e
% D2 M  _4 {3 i3 U6 A# ]

# b" m4 _# I" E5 F1 P& \  eMenu5 U5 u$ W: z8 l: |" K0 G; D) B
00:22:12.000 : en:End Credits
8 J  F+ y' r. s: n

2 W- I5 n/ c8 |9 P. ~: F% V: V
( N+ f' m6 U6 h2 s4 ]
突袭之后4k.After.the.Raid.2019.SPANISH.2160p.NF.WEB-DL.x265.10bit.SDR.DDP5.1-纪录片下载5 r3 ?( a' _  @% N
& ]/ e- N) Z6 I% {
突袭之后4k.After.the.Raid.2019.SPANISH.2160p.NF.WEB-DL.x265.10bit.SDR.DDP5.1-简繁中字【2.06 GB】' t! D: L1 ^' W% O  v

After.the.Raid.2019.SPANISH.2160p.NF.WEB-DL.x265.10bit.SDR.DDP5.1-NewYear.torrent ( 21.23 KB )

" T9 ~1 ]3 y, z# V. B) Z0 r

" w9 ?% t) ]1 o0 |  H' O; c( Z! T6 k- R' O
! g! Y- q# F  x, J
登录 发布 快速回复 返回顶部 返回列表