开启辅助访问
 找回密码
 立即注册

天大逃犯:汽车大亨戈恩奇案4k.Fugitive.The.Curious.Case.of.Carlos.Ghosn.2022.2160p.NF.WEB-DL.x265.10bit.HDR.DDP5.1-电影

#4k记录视频#时间:2023-04-28 阅读:332 回复:0

4 a( I) l/ m; ?# B0 U 160739a4w7gbddgbnkdrok.jpg.jpg
* w+ K- i3 _8 h; Y7 W, M3 ^. }/ p( ^

1 d0 M4 F8 j  p: g! k简       介
# ^& R0 y+ e) a) c3 @

$ `' O4 X8 ]5 i2 m3 x5 U  这部真是纪录片聚焦卡洛斯·戈恩,讲述了他从商业大亨到身败名裂的传奇故事。
. D# i, r8 `+ j( o1 _% s; d
; F9 A8 p- p( l影片参数
天大逃犯:汽车大亨戈恩奇案4k.Fugitive.The.Curious.Case.of.Carlos.Ghosn.2022.2160p.NF.WEB-DL.x265.10bit.HDR.DDP5.1-电影信息
) r2 l- b% W) Z: EVideo
3 `( t7 m3 b) V8 W: @ID : 1
& Z  K0 E1 J& w# zFormat : HEVC
/ P3 F) u6 _) k' K/ r! YFormat/Info : High Efficiency Video Coding- A) \, X/ u6 z5 D: i
Format profile : Main 10@L5@Main
  l: x4 P5 i& }! jHDR format : Dolby Vision, Version 1.0, dvhe.08.07, BL+RPU, HDR10 compatible / SMPTE ST 2086, HDR10 compatible
$ o" L* y) G; vCodec ID : V_MPEGH/ISO/HEVC
7 E1 p9 R& {8 b5 BDuration : 1 h 34 min. P2 Y& T( I4 S6 f0 d# E) h- z: n
Bit rate : 10.7 Mb/s1 I6 g5 ]8 H' n1 u) [5 |, o
Width : 3 840 pixels$ d. t' N9 j' ]) T! j: o5 x
Height : 2 160 pixels
5 P  J! P: K1 U8 k+ O2 ?" \Display aspect ratio : 16:9$ S; i  E9 F$ g/ _$ o0 x
Frame rate mode : Constant
3 F! [0 O; d" ?0 k% |0 H! SFrame rate : 25.000 FPS' N& h& \; b8 ]& k2 P4 {. g
Color space : YUV
9 d1 R: T: z0 {& S! yChroma subsampling : 4:2:0 (Type 2)
+ N1 B6 a) e$ @6 vBit depth : 10 bits8 f7 \, s+ U8 v  y8 M! B
Bits/(Pixel*Frame) : 0.052
4 A" ^+ A: f$ _( i( h/ E0 s, uStream size : 7.06 GiB (94%); `" f( t& c- Q/ e; Y6 E$ ]
Language : English% ?! s3 g+ Q; [+ G- R) w
Default : Yes' N% S0 ^" ]# Z0 Z4 m# L
Forced : No0 r2 j9 B" c, E/ [0 i* r0 S
Color range : Limited, u1 {: p2 }9 G' U
Color primaries : BT.20207 U: M) m3 C# l/ K4 r3 e
Transfer characteristics : PQ; S5 i0 `3 P# b. p
Matrix coefficients : BT.2020 non-constant
! {7 Z9 o* @; a5 k7 LMastering display color primaries : Display P3
. n. ?  c0 Z) a: n  A  D' EMastering display luminance : min: 0.0001 cd/m2, max: 1000 cd/m2
  k# E8 p% e4 I$ t" b/ UMaximum Content Light Level : 1046 cd/m2- S2 ^! P) e* l( E6 n
Maximum Frame-Average Light Level : 147 cd/m2* ^3 W# R& k% h& d8 [" ~5 R

$ E' m7 L9 s/ u: R+ f- s
. q, L3 ?& J( _3 c5 f9 v# d
Audio
" J; s: ~3 O  g2 R& s; ~  bID : 2
2 v, \! p7 e; a/ q2 O) L- M, mFormat : E-AC-3
* i- e  ?6 ~5 N5 `$ }0 i  rFormat/Info : Enhanced AC-3
2 W) K! k/ z4 L, ICommercial name : Dolby Digital Plus
! @! A" p* ?# q/ wCodec ID : A_EAC3& B/ y4 G( F; u$ u  p# D0 M
Duration : 1 h 35 min0 w0 [- D. b. b- y5 J
Bit rate mode : Constant: f( O2 {5 }! Q6 j
Bit rate : 640 kb/s
+ `% [9 f7 U0 `  |: d5 q5 P' DChannel(s) : 6 channels
: W8 A2 v. O( B; }2 mChannel layout : L R C LFE Ls Rs
& e, {3 S5 f0 V/ PSampling rate : 48.0 kHz$ K, X. _4 h) t2 h
Frame rate : 31.250 FPS (1536 SPF): I1 R% Y2 E5 _4 Q
Compression mode : Lossy  D8 a' G: A( S% l2 t; r0 J4 |' O
Stream size : 435 MiB (6%)7 P9 G) f! y/ q# k
Language : English6 U" I  ~" m) t5 _
Service kind : Complete Main# a% H, q) F* J; a
Default : Yes
6 u0 p6 W( `8 o( n( YForced : No
& E3 a. I2 c( [- G! O% x! I7 g
' o6 w) S' R# Y, R
! ^- r6 R% D9 T# c0 m( G. z
Text #32
% Y' U: j9 F* [1 |8 JID : 34
' p4 U/ _% }' H% e% j: RFormat : UTF-81 A' K% G9 k! S9 P# u# c
Codec ID : S_TEXT/UTF8# H2 F( }. f2 \3 V
Codec ID/Info : UTF-8 Plain Text3 [/ A0 c2 q4 }5 E
Duration : 1 h 33 min" l2 x5 V/ M: G, @/ U
Bit rate : 116 b/s
  @6 x$ z$ J5 |) N; V# C4 O- sFrame rate : 0.218 FPS0 f1 L% }5 w4 a8 x* x$ \# z  d: k" c
Count of elements : 1230# d) H7 z/ @' O' _5 X2 H; |% P
Stream size : 80.4 KiB (0%)/ p5 Y& t4 |* J' ~0 i8 t* ^0 m: k
Language : Ukrainian1 y8 E+ h1 |2 K6 ]
Default : No
1 U3 d3 k8 t$ gForced : No: T% {. X& F, P5 L0 L

5 `' a* `4 D) e+ }

. P3 T, V8 P* S/ ~" GText #33
8 m. Y6 R3 z  g7 O* i3 _ID : 35
( S  p: W8 x% d7 z# d4 ]+ MFormat : UTF-8# v2 L7 |% O! n* O8 V" O
Codec ID : S_TEXT/UTF84 Y2 i, H" w/ Y; @, z5 D& [4 l7 |
Codec ID/Info : UTF-8 Plain Text
2 r3 I/ [& i  j$ y5 H, `. hDuration : 1 h 33 min
3 X' X9 j3 q' Z2 T* pBit rate : 104 b/s
8 j: S  V; Q, L( S, l% wFrame rate : 0.213 FPS6 Z& Q8 m  z: z* u; s; p
Count of elements : 1200
$ d' ^# o* z; H% U7 c; nStream size : 71.7 KiB (0%)
. B7 ^, \7 H% i( |  _, TLanguage : Vietnamese, _, K) s$ o3 y) k. L
Default : No
1 [" A; t  a: B& ?6 Y% X1 M4 ]4 k$ XForced : No& H4 R$ Q8 B3 d6 W# X

. E$ P1 x4 }5 }8 w

3 `1 H+ w0 ?4 @/ c3 lText #34
) ^- K/ i: g" t, [5 CID : 36
7 _( v( L) ^3 c7 |Format : UTF-8
8 y+ B; U$ w/ X4 }4 yCodec ID : S_TEXT/UTF8
# l  X/ d5 n; i& E! e+ z0 JCodec ID/Info : UTF-8 Plain Text
/ \# V9 L5 \! m  D% YDuration : 1 h 33 min
/ q" N( R9 A/ E# }! I9 ^7 o( fBit rate : 72 b/s
$ w' d8 i; n- f! z3 W  C: oFrame rate : 0.226 FPS
3 N  V6 m6 x+ J/ t: fCount of elements : 1273
; i: P4 f+ \1 {  c1 O8 hStream size : 49.6 KiB (0%)
3 t- [0 R( F4 @- v/ j+ zTitle : Simplified+ O  g! Q+ q, ?6 |" z, ?" _8 h
Language : Chinese (Simplied)
+ R( A8 E* }% z5 `/ oDefault : No
  t2 C1 J9 u: y8 d5 D9 Z9 [' cForced : No- N+ U# t  o1 x& a; K1 m

$ u% i' n( g+ M/ m

7 D' O! e/ j8 t% tText #35, y/ H* G8 d5 p  V% N0 C, I: N, X& l
ID : 37
! L. ~/ b! A. k2 gFormat : UTF-86 C: s8 |4 w+ P/ c* f9 A9 U1 m
Codec ID : S_TEXT/UTF8
2 @+ ]' P3 e7 E+ a6 ]- vCodec ID/Info : UTF-8 Plain Text
; u# X/ L8 w; T# Q9 [( d0 QDuration : 1 h 33 min
. e' }0 W" ^0 \/ aBit rate : 63 b/s) N& ?0 U( m7 H" R. E2 w/ \
Frame rate : 0.254 FPS
# r0 v% n: {$ l5 ^" NCount of elements : 1430
+ a! n4 j, ~/ i' F7 n+ PStream size : 44.0 KiB (0%)
0 }6 ]0 T# K: h. L$ ?Title : Traditional) p/ s8 O5 J# Z
Language : Chinese (Traditional)
+ D4 M1 r" v; y4 h2 Z- r4 o7 h, k4 WDefault : No
3 A( c, A5 d8 [+ h2 ZForced : No  Z8 P& e9 n5 [9 N% u8 d0 x
! b  i3 x2 ~  e6 e& H, h' p
( ]$ I/ c% r2 y/ k( f
Menu
" F! J, `2 t% ]1 b' k+ }; L01:32:11.000 : en:End Credits
- M4 I' \3 E1 A3 {. Z+ I
4 x+ L; B2 s. R/ E/ Z6 P
& C) ]$ r- P7 k( `2 y& U
+ l$ X0 a; s- [( \  D: J: |
天大逃犯:汽车大亨戈恩奇案4k.Fugitive.The.Curious.Case.of.Carlos.Ghosn.2022.2160p.NF.WEB-DL.x265.10bit.HDR.DDP5.1-电影下载
" [7 r7 S1 N! Y8 o5 v& M
, q2 W0 s/ E7 ^2 K" j天大逃犯:汽车大亨戈恩奇案4k.Fugitive.The.Curious.Case.of.Carlos.Ghosn.2022.2160p.NF.WEB-DL.x265.10bit.HDR.DDP5.1-简繁中字【7.49 GB】7 @% J7 i. G% Q1 W0 T; _! `# R$ F/ m

Fugitive.The.Curious.Case.of.Carlos.Ghosn.2022.2160p.NF.WEB-DL.x265.10bit.HDR.DD.torrent ( 19.43 KB )

' ^; v1 G# r$ l  U

1 C2 m$ ]2 H' o+ T) Z$ G+ S
" V  z  c( \2 [2 t) @' a- W0 {  n2 w) U' b1 n
登录 发布 快速回复 返回顶部 返回列表