开启辅助访问
 找回密码
 立即注册

体坛秘史:AND1的兴衰[中文字幕].Untold.The.Rise.and.Fall.of.AND1.2022.2160p.NF.WEB-DL.x265.10bit.SDR.DDP5.1-COPiUM 4k电影

#4k记录视频#时间:2023-04-28 阅读:398 回复:0
6 w9 u* L! Q2 f/ s$ s- X
164011tipl81cmt8sh18sm.jpg.jpg
* x) E+ z& d$ v
" n# T; G0 y6 v' a0 K) Z
, W; F5 o' D3 @! o0 q简  介
3 b8 o7 c3 T4 w/ h0 k

; B7 x/ l& k; k% D+ ]  灵感来自于纽约街头篮球的品牌AND1曾颇具影响力,让当地街球传奇人物成为了国际巨星·,但它为什么会走向衰弱呢?$ j1 i  D, ~+ s6 F2 l7 Q8 U
5 H2 n" x1 g: L5 p+ y* ]! _0 b
影片参数! N( ^0 v) T8 k4 X1 ^3 |
Video
$ Q( o) [3 o1 t& M- V- nID                                       : 1
$ _4 E, [" M1 ~3 S- }& bFormat                                   : HEVC
9 |4 L  W8 D: ]) g6 c5 r6 s* CFormat/Info                              : High Efficiency Video Coding
4 m. L2 r* @) M. w5 nFormat profile                           : Main 10@L5@Main
4 h( Q! `& R, K/ ]HDR format                               : Dolby Vision, Version 1.0, dvhe.08.06, BL+RPU, HDR10 compatible / SMPTE ST 2086, HDR10 compatible# I6 M4 ]. N. v. \0 P
Codec ID                                 : V_MPEGH/ISO/HEVC; x% e) E% t1 i( {
Duration                                 : 1 h 8 min
2 _! r! a. `& l( TBit rate                                 : 18.2 Mb/s
9 H3 {" G* z- i& lWidth                                    : 3 840 pixels
/ h( J4 I6 v) s" O3 \( X" |Height                                   : 2 160 pixels  \; i) F# J7 [5 b* H
Display aspect ratio                     : 16:9
; N0 \9 |6 k" G; \Frame rate mode                          : Constant
1 p: I- |4 F% ZFrame rate                               : 23.976 (24000/1001) FPS
) _4 j* i6 z1 h" D) S$ b, O" L2 g+ fColor space                              : YUV5 m% P- g2 ]7 `" X  U8 i' O8 V
Chroma subsampling                       : 4:2:0 (Type 2)
, `# G# L0 e! K! y, rBit depth                                : 10 bits/ c+ c6 `% H. {/ N
Bits/(Pixel*Frame)                       : 0.091
- |" L/ A2 ]: CStream size                              : 8.71 GiB (97%)
& p. @% ]+ Q( y4 Q) v6 B  tLanguage                                 : English
- v9 X7 ?& G6 D) dDefault                                  : Yes) _" `9 P# R7 @5 c$ B7 x
Forced                                   : No
6 P8 h/ ]% I. w0 D; H) i9 w. u* c0 jColor range                              : Limited- m" d' J8 [) t+ ?- ~
Color primaries                          : BT.20200 H- k* r/ k' E3 i- p
Transfer characteristics                 : PQ
. p! ^& s* A- r' ~; `Matrix coefficients                      : BT.2020 non-constant
$ [5 R& l3 b+ ^Mastering display color primaries        : Display P3
! D$ o4 C/ ]3 E) m) Y) tMastering display luminance              : min: 0.0001 cd/m2, max: 1000 cd/m2
+ s4 }. W" T- Y: e: X& z8 mMaximum Content Light Level              : 798 cd/m2
# f/ g, C/ |8 wMaximum Frame-Average Light Level        : 149 cd/m2" o& x% t; N1 P
Audio
. E6 J, {. Q6 ~6 O8 d6 J" s1 j" CID                                       : 2* P( I. c, A* w, m1 w3 k( j+ ^
Format                                   : E-AC-31 ~: R5 D8 a8 I+ A, H0 g3 z
Format/Info                              : Enhanced AC-3
8 ]! k! j& A8 x* n5 U) DCommercial name                          : Dolby Digital Plus
- T+ G( s! I3 U% |' HCodec ID                                 : A_EAC38 i3 t( n2 c# a: C- }
Duration                                 : 1 h 9 min
: u! I1 ?0 G# i3 B5 ?1 `Bit rate mode                            : Constant
  ~. C7 x% K5 |' Z- d. ?6 XBit rate                                 : 640 kb/s
' `1 X1 t' }* }: I4 F6 aChannel(s)                               : 6 channels
# _4 y# n' k4 T4 P% F0 w" HChannel layout                           : L R C LFE Ls Rs. m9 {2 h% f) W
Sampling rate                            : 48.0 kHz
. I4 W/ b( U& u6 i/ ^Frame rate                               : 31.250 FPS (1536 SPF)
& T$ j6 x0 p' T* _2 B6 ACompression mode                         : Lossy
% J2 C7 q( q4 _- z6 @7 g" HStream size                              : 317 MiB (3%)
0 K3 e. g3 N5 e6 G5 K2 Q, e" ~Language                                 : English9 i. {( ~1 f) i0 ^3 v+ a3 |
Service kind                             : Complete Main9 l; M5 X, j) H% o* G" M6 i
Default                                  : Yes+ o* b& l/ ?+ K5 ]  P
Forced                                   : No$ o" A/ T. C5 D
Text #1/ k) h$ j" l1 T% _' E% [- t* i
ID                                       : 3- K0 B' A- O4 k0 F5 T
Format                                   : UTF-8
$ ?' E- r% b) B! tCodec ID                                 : S_TEXT/UTF8
! E  r5 A4 o3 p* f# a9 S5 j5 GCodec ID/Info                            : UTF-8 Plain Text
. x# O* x9 j% t' i/ ~1 Y/ L# [Duration                                 : 1 h 3 min' C( Q' L* K1 J7 x
Bit rate                                 : 10 b/s" e/ T: g' [- L7 i
Frame rate                               : 0.030 FPS6 [; H" j- B; x6 ?2 _
Count of elements                        : 116* _9 W3 E1 n9 D" y
Stream size                              : 4.91 KiB (0%)
+ u0 j; u- G1 T8 L( o$ L$ fTitle                                    : Forced
6 @/ e& n8 V4 o6 Z; x0 p' BLanguage                                 : English
9 Q% [/ I1 t' }6 r; L1 ?- LDefault                                  : Yes$ r  G0 q/ N2 q- x
Forced                                   : Yes  s+ P" m6 v1 M; f
Text #27 E' ?+ a8 W- E) ]: S
ID                                       : 4
6 {( R. i( z. \  @: OFormat                                   : UTF-8- h7 B4 \1 Y. a: C0 K- k$ q. V( M6 V! i0 Q
Codec ID                                 : S_TEXT/UTF85 R+ E5 ]1 z& ^/ G5 a7 n! m
Codec ID/Info                            : UTF-8 Plain Text
- ?; r( X1 }4 s! Q8 J  m& Z: YDuration                                 : 1 h 5 min$ [' M5 L3 `7 D& W- ^( a& L# w
Bit rate                                 : 99 b/s- K- _; D: k: b: {1 K$ ?0 O# L
Frame rate                               : 0.282 FPS! _+ b# y* m0 S% X
Count of elements                        : 1113
" l: Q/ {3 {; c& p. J5 V' W9 s% K8 HStream size                              : 48.0 KiB (0%)5 ^2 y3 B, S7 p6 K3 u8 h4 W* n+ x
Language                                 : English
  X6 n3 d2 u! L% R9 |1 i7 dDefault                                  : No! a1 }$ g7 @$ r" M
Forced                                   : No
$ z$ o6 J# l/ b, ^1 w9 T& EText #3
/ ]7 o" x) O9 X  E! U5 ^& zID                                       : 5/ c  N' d8 {+ a
Format                                   : UTF-8! H" m$ b4 v6 \( s7 i' q
Codec ID                                 : S_TEXT/UTF85 ?3 Y5 g! \  L
Codec ID/Info                            : UTF-8 Plain Text. z$ B- L' [  V  D: Y  P8 f; A
Duration                                 : 1 h 5 min
5 d. m) k1 u/ I% e/ c7 D5 k# S9 GBit rate                                 : 112 b/s
; ^% i: D$ m& |9 w5 h6 ^5 _# O+ _Frame rate                               : 0.325 FPS  K- S2 e: ?* G- z+ E0 v! j
Count of elements                        : 12864 J: ?3 I1 r$ R; |" T# b; f8 G
Stream size                              : 54.4 KiB (0%)6 e0 \2 ?+ S( b3 f
Title                                    : SDH/ Z. D9 N& d1 A# f& R
Language                                 : English9 F3 B& a2 m; t! h4 D
Default                                  : No
$ t% }/ c% X- _* `Forced                                   : No5 e, s2 Q, G  n* C# V
Text #46 F$ N) \; X0 }8 B
ID                                       : 6
1 I9 H2 R1 M9 E) WFormat                                   : UTF-8
# y) {9 H; E3 b5 e0 xCodec ID                                 : S_TEXT/UTF8
7 q- R4 K; N  p( lCodec ID/Info                            : UTF-8 Plain Text' {5 q9 J7 r2 u9 I- e$ v
Duration                                 : 1 h 8 min
: L6 O& C( ?. b3 m2 a0 WBit rate                                 : 150 b/s3 a& T- B  c4 k
Frame rate                               : 0.281 FPS
" P; K( ]( S4 H: PCount of elements                        : 1147
- R' f7 W6 F# P9 s- bStream size                              : 75.1 KiB (0%)  ^  V: G9 \" x1 q2 T# ^4 e$ n/ |
Language                                 : Arabic
0 r& k( c4 q: n# q/ |& ~Default                                  : No; }0 p# o- ~( s
Forced                                   : No
' ], y1 E6 Q& a2 I1 T1 y- y! nText #5
- f4 b0 i# N5 @( k: yID                                       : 7
6 _! B4 V7 _0 H: QFormat                                   : UTF-8
2 K0 O5 o* O- Q1 A  ?$ iCodec ID                                 : S_TEXT/UTF85 T4 b0 e, \, R' L+ o
Codec ID/Info                            : UTF-8 Plain Text
$ l  B# d7 I: d/ ^Duration                                 : 1 h 8 min8 {' T' U' j2 e; e! y
Bit rate                                 : 85 b/s% U! N' W- K) \  T" d
Frame rate                               : 0.255 FPS9 _- @8 ?! B/ U: f: v3 y
Count of elements                        : 1041  M, b/ u9 z4 R- t- V
Stream size                              : 42.6 KiB (0%)
1 ?; t  X  \# |# x- O0 a) ILanguage                                 : Czech
4 W( Y* m' k) m+ s6 u. y& n! p- }Default                                  : No6 ~% o9 T% v$ K) _
Forced                                   : No! a7 A# N# e3 O+ n
Text #6* r: o7 \; w# f* }& `* M
ID                                       : 8
" A7 F3 _' R$ e; {2 ~% XFormat                                   : UTF-89 ~5 p6 j* ~/ Y: U$ j6 q: r
Codec ID                                 : S_TEXT/UTF8/ N/ E2 ~2 D9 ?- q  l
Codec ID/Info                            : UTF-8 Plain Text
3 a" h, m* K& z# t8 jDuration                                 : 1 h 8 min7 ~6 B9 G- H, Y- L+ p
Bit rate                                 : 79 b/s8 ]/ j& Z  s$ _/ @8 @
Frame rate                               : 0.244 FPS
4 _& `" v$ j9 i/ {/ K$ fCount of elements                        : 996
( O- ?. {& T1 w. X4 XStream size                              : 39.7 KiB (0%)$ L9 e8 Z* L& Z( N* H! {" q" o
Language                                 : Danish6 f# ^. P' m+ C0 @  R' G
Default                                  : No6 F4 x$ E: q+ f$ I& c  O' m, G
Forced                                   : No( @  w7 a$ d. K2 S
Text #7
" G  T4 V4 R# W% DID                                       : 96 l9 ?; ?. y: G- G. }4 e
Format                                   : UTF-8" P* o. N, h7 W3 H: r7 N; X5 X
Codec ID                                 : S_TEXT/UTF8
6 Q' ?5 O* s, x9 [. b# ~# ?" h2 WCodec ID/Info                            : UTF-8 Plain Text
8 f9 @0 i- T/ eDuration                                 : 1 h 8 min& |9 T, d/ b7 {4 G% }
Bit rate                                 : 80 b/s
" l! v8 Q, D7 O1 q6 {% @* A. T+ }Frame rate                               : 0.257 FPS  z, e. O) g+ X& j3 |
Count of elements                        : 1050  l9 X8 m: p2 j% U1 K
Stream size                              : 40.1 KiB (0%)
) F7 ?& H$ M: L4 gLanguage                                 : German( q8 u$ _* ~( ~
Default                                  : No
6 o* l* m% x5 _: i7 uForced                                   : No
) l6 n/ b! g* E, Y3 C8 r1 o) N5 x' \Text #8
( U( Z+ Z! i3 s" ^ID                                       : 10. Q' C, M. j+ d! _# S
Format                                   : UTF-8$ q3 Y4 O- f& _1 k6 f; d
Codec ID                                 : S_TEXT/UTF8: C0 H1 p  b9 s- k+ M% a7 J
Codec ID/Info                            : UTF-8 Plain Text" D/ v* ~, F1 [  F: n0 T  Z0 M; p4 d
Duration                                 : 1 h 8 min% g& o( i. L; r- [) H0 \3 [" {  A
Bit rate                                 : 137 b/s
2 G3 Q2 s9 X% }Frame rate                               : 0.274 FPS) i6 X  [1 k( }8 N* R! q0 t/ j
Count of elements                        : 11190 }& ~# S' ~# v4 ^$ G. ^; A. `/ T
Stream size                              : 68.6 KiB (0%)
5 `9 ]! C0 r3 @2 [3 b; `Language                                 : Greek
1 e4 O) ?' M' W0 z" z. j* T5 }( rDefault                                  : No( N2 c; h3 c. X, {" a7 _# K
Forced                                   : No6 m; ^$ e! m& A; s  J1 s; a
Text #9  D/ e2 u$ J" n5 t7 K3 E6 C
ID                                       : 116 N+ b, K: Y% p% |& h; I" }6 i' |
Format                                   : UTF-8, P% c. E. ]- G6 h
Codec ID                                 : S_TEXT/UTF8
' j; j  A$ F; {8 |' Z: yCodec ID/Info                            : UTF-8 Plain Text0 M2 C% ]5 S1 M" x0 f
Duration                                 : 1 h 8 min
8 E$ Q; p  K3 Q% E) Z6 h+ gBit rate                                 : 80 b/s! \. a, S# J/ n) g4 [. y
Frame rate                               : 0.263 FPS$ d( V1 \# \, V! G2 p1 B; C
Count of elements                        : 1074$ _1 A/ P$ v- V; @1 E/ Z3 @
Stream size                              : 40.3 KiB (0%)
. B' N6 l# l; y. H% tTitle                                    : Latin American& a% k) S3 b. l' k3 w5 G
Language                                 : Spanish (Latin America)6 J3 H/ _8 a  t0 d5 q
Default                                  : No
$ z* ]* x+ o& H- l  XForced                                   : No9 x" V' `# ?9 k& ~- E7 w5 l
Text #10
/ z2 h2 Q0 d- E  _* \/ L. mID                                       : 12: m, V/ q# ]9 L
Format                                   : UTF-88 O; p, P/ q. G+ d1 w5 \" q
Codec ID                                 : S_TEXT/UTF83 I; d8 B2 U1 h$ n
Codec ID/Info                            : UTF-8 Plain Text  x7 D3 p  I. T
Duration                                 : 1 h 8 min2 P) H6 n+ Q* _# i, Y- N4 I
Bit rate                                 : 77 b/s) M- R$ S0 N2 Z. w4 U
Frame rate                               : 0.302 FPS
. ]1 _2 ?' O4 Z" dCount of elements                        : 12357 E2 ^9 F# ], U: R1 u, `+ j
Stream size                              : 38.6 KiB (0%); o2 n5 v5 k% T$ X9 o$ I5 l
Language                                 : Spanish (ES)1 o% l2 O- A4 z4 [
Default                                  : No
1 d8 G; B9 r' m9 g4 N$ gForced                                   : No) g# @# H8 L2 b* G& E2 @
Text #11
$ L" b& s/ I2 e, |  Y* h" K; aID                                       : 13
1 c- i) c2 l+ nFormat                                   : UTF-8
8 e+ T$ ^! U+ v+ q/ W' FCodec ID                                 : S_TEXT/UTF8
, B7 k0 g  t: A9 }; qCodec ID/Info                            : UTF-8 Plain Text! d9 z* v  a1 B. l; r
Duration                                 : 1 h 8 min
" y2 h$ y" ~7 |! o, \Bit rate                                 : 79 b/s7 W1 T' B6 d8 |; o4 I! e
Frame rate                               : 0.228 FPS, ]  \9 W3 b9 U* O* t
Count of elements                        : 9317 t$ Q' B/ \) C6 o) m
Stream size                              : 39.5 KiB (0%)
0 s$ _- K0 I1 c- u( J0 HLanguage                                 : Finnish/ ^5 C: `/ c) n/ k  d% G& O1 ]
Default                                  : No
( C: @7 `2 ?& T- V0 W$ m9 D& tForced                                   : No
2 v2 y: q2 T1 k; i) G. R7 [Text #12+ Q4 Z% M$ F1 c  f* S+ c3 E7 b
ID                                       : 14
  b1 J+ m% _9 F0 D/ sFormat                                   : UTF-8
3 e+ w5 Q3 |- q' iCodec ID                                 : S_TEXT/UTF8+ w( Y$ W  U1 \4 q
Codec ID/Info                            : UTF-8 Plain Text. l. M& A0 T/ A: e( m
Duration                                 : 1 h 8 min
; u$ }# j3 H8 B/ sBit rate                                 : 84 b/s
. ]1 R6 t! i& t: i$ A8 dFrame rate                               : 0.270 FPS
' [* T4 U- ]0 ]* }! l' r* y# n5 dCount of elements                        : 1105% ~7 g2 D) e6 L8 y0 _
Stream size                              : 42.3 KiB (0%)( v( w& N5 v) [! X6 }
Language                                 : French2 |# n- t* \3 b" A
Default                                  : No
6 ~/ f; {- J4 u9 I. T7 QForced                                   : No& ~) n# C  Z8 x) F' M8 x
Text #13+ l. g/ J& e; n- A4 H
ID                                       : 15
, Y% Z$ l" C. XFormat                                   : UTF-8
' N" V' G) U6 g* y( ?5 VCodec ID                                 : S_TEXT/UTF8- @' t) \& A& f3 I! `
Codec ID/Info                            : UTF-8 Plain Text+ S5 o9 z8 d. f
Duration                                 : 1 h 8 min
: ]2 `) q: {+ t' }7 SBit rate                                 : 141 b/s
# t0 d; v+ h! a/ D- H5 ~Frame rate                               : 0.260 FPS
7 {$ u, p+ d+ Y% PCount of elements                        : 1062( }$ X3 ?( s* w- a
Stream size                              : 70.6 KiB (0%)
# d- D# Q4 G/ E8 ?7 n6 A/ h' {Language                                 : Hebrew5 x! S1 r6 C0 P  H; D
Default                                  : No, T# S' M, I; P  H  D) Y$ V5 V
Forced                                   : No
' t! n: f) E: N' E4 V& vText #14; O. A+ |2 e; t! e) S" d
ID                                       : 16
# C7 o7 E$ K( xFormat                                   : UTF-8, v* s3 s# S+ K$ C" y& L
Codec ID                                 : S_TEXT/UTF8
1 P6 `3 B2 O2 r% I5 W. B$ f1 b- oCodec ID/Info                            : UTF-8 Plain Text, S2 S" V. y) M$ A+ E
Duration                                 : 1 h 8 min' Q5 Y: W2 z$ R1 k
Bit rate                                 : 86 b/s
* Z) O' ^( e$ ^: vFrame rate                               : 0.271 FPS: W/ ~7 E5 e, {; G( M
Count of elements                        : 1106
- h; x. S5 z' g2 v% XStream size                              : 43.1 KiB (0%)
; P/ f3 o. M+ iLanguage                                 : Croatian  {- Q8 d5 B8 j$ V( f. j/ |
Default                                  : No! e7 {& M! {  k8 k1 S, ^
Forced                                   : No  b- i+ V" {3 }% }7 ?: a) u
Text #15+ h& j4 L6 y" U6 d0 y( g9 u* \
ID                                       : 17' |) }5 V( f6 R+ z/ {
Format                                   : UTF-8
$ ^1 u7 s7 V% b! Z, _8 F/ @Codec ID                                 : S_TEXT/UTF8; _! T# O0 b7 R/ S$ o9 t
Codec ID/Info                            : UTF-8 Plain Text: K4 l& z% v# b% o
Duration                                 : 1 h 8 min3 b3 x3 D4 \2 j# w
Bit rate                                 : 92 b/s
8 P+ G3 A. M+ c# |" g* BFrame rate                               : 0.240 FPS1 R8 @7 @/ x% {/ S0 N/ }
Count of elements                        : 982
8 x# ]& V2 G' [3 H  K, v9 V7 yStream size                              : 46.1 KiB (0%)
5 ~& j% D7 W! g* ^Language                                 : Hungarian
9 a6 ~! e" ~; \0 @7 ]: q9 YDefault                                  : No
2 X8 N" a9 Q4 e% a/ k0 s+ OForced                                   : No
/ m9 d5 N& e) p2 t) R- p& K/ |Text #16
! X% V( C% `' w0 E' iID                                       : 18
. w2 c3 B" ^7 w6 T! t- k8 MFormat                                   : UTF-8
9 J( G0 _% r8 x9 `Codec ID                                 : S_TEXT/UTF8
% E  w8 w9 [9 C8 bCodec ID/Info                            : UTF-8 Plain Text, a+ v8 l; b, K9 y7 f# E4 M7 P( k
Duration                                 : 1 h 8 min* i! C: I/ x/ `+ m/ |$ P: w5 Q
Bit rate                                 : 88 b/s; k  b3 L$ `. C. O% M' _
Frame rate                               : 0.272 FPS' K1 P5 H5 l8 d( }: @
Count of elements                        : 11117 z& y! m7 s5 ?- L6 Z* N
Stream size                              : 44.4 KiB (0%)
1 A" T" ?4 b/ Y7 ^( dLanguage                                 : Indonesian
' `2 d, g; }+ `" }Default                                  : No
/ @; S! i0 w* |. ~6 x4 {/ DForced                                   : No6 h; _2 m0 ^- r( M
Text #17
3 ?8 a4 I( ]: @% }9 V% ]ID                                       : 19# U; [6 L6 ^( M( c7 n2 [
Format                                   : UTF-8
5 J. n% I# q$ ]3 }+ A4 JCodec ID                                 : S_TEXT/UTF8- @* e; S/ g7 C; n
Codec ID/Info                            : UTF-8 Plain Text
6 _$ A% P7 H( EDuration                                 : 1 h 7 min( \: J1 ~, N  Q, z0 V8 u
Bit rate                                 : 81 b/s
- b& @$ x  `7 w, HFrame rate                               : 0.259 FPS0 }+ u8 C0 J& t  |6 J
Count of elements                        : 1055
3 R; {  [6 ]: jStream size                              : 40.7 KiB (0%)* d  w$ y; V! u9 s) s, U
Language                                 : Italian: H, |0 ?! Z3 t* Q, }' t
Default                                  : No: F2 v8 U0 }/ L& W' }0 }' l. |
Forced                                   : No
, [9 ?* @7 W3 `# u2 s4 xText #18
, @& ?6 ]. ^6 p" a# d0 J4 U: DID                                       : 20
9 D& w: T0 u9 o0 f. g" ], IFormat                                   : UTF-8
9 `* h2 D$ ]6 h+ fCodec ID                                 : S_TEXT/UTF8' M$ n/ B/ C- q7 t8 ^
Codec ID/Info                            : UTF-8 Plain Text
$ B% [, [0 X4 Z2 p! zDuration                                 : 1 h 8 min
  K! g+ N! n! C$ N' |0 a+ @Bit rate                                 : 102 b/s
3 N! p" {7 h; O5 uFrame rate                               : 0.270 FPS
. q6 P: m& t4 B) v! n/ YCount of elements                        : 1104. E2 l; s+ G( \  X* U2 O
Stream size                              : 51.1 KiB (0%)& @4 F& y5 L' }
Language                                 : Japanese
; D- E9 t8 r; S/ b5 eDefault                                  : No
1 I* u7 a9 J2 cForced                                   : No, l4 Y/ B* R! p: Y* B
Text #19; x4 J& K' @' r8 z5 C0 W. M
ID                                       : 21, ]" ?& f  i" P
Format                                   : UTF-8
# A4 h8 K1 h- h6 J' Y% t0 E. g( O2 dCodec ID                                 : S_TEXT/UTF87 N" w/ k( L0 k+ Z# d) N
Codec ID/Info                            : UTF-8 Plain Text' D1 `6 U" o0 X$ t
Duration                                 : 1 h 8 min
* @$ ]  k: E3 @1 k/ X1 p' l( X. }3 W7 bBit rate                                 : 117 b/s3 Q  j$ k6 X7 t+ l  v3 n
Frame rate                               : 0.286 FPS
' H) u$ G+ g+ @3 o+ xCount of elements                        : 1166
1 M. [$ [7 W5 r  Z! XStream size                              : 58.7 KiB (0%)* @% }9 J% y. n
Language                                 : Korean7 N7 o- o* u2 H4 r% Y
Default                                  : No
) H7 d% j$ o* A9 P9 uForced                                   : No/ Z! g' T3 G- Q" L2 b6 U
Text #20  n$ L( g- C* j- X( i+ ?2 ?9 n
ID                                       : 22
# G8 C! I- k& ^& L1 }" f4 QFormat                                   : UTF-8, _7 l% ?, E) P) M
Codec ID                                 : S_TEXT/UTF8/ X  @% l- y8 p- v
Codec ID/Info                            : UTF-8 Plain Text/ Q  J: @6 g8 q; Q/ A
Duration                                 : 1 h 8 min5 V: U% d7 j% |: o8 p: `$ Z: |
Bit rate                                 : 77 b/s1 z) \  S; m% d; r5 h1 [8 Y2 w
Frame rate                               : 0.265 FPS: h- n9 f# F1 Y) o$ l& f* V
Count of elements                        : 1083
' @! k1 t- t3 YStream size                              : 38.6 KiB (0%)
% b5 O+ K' t, M/ ?; W5 I$ aLanguage                                 : Malay
- S" Z5 I3 `! ?( O. m$ z1 wDefault                                  : No2 E9 e0 s" q, e: C* O& X
Forced                                   : No
1 X7 p- Q4 j, @9 t) U( NText #21/ A& W& R: x/ d+ ^! c
ID                                       : 232 [1 g( V- S6 b1 |7 r
Format                                   : UTF-8
. E; n7 }2 b: C. h$ K" v2 yCodec ID                                 : S_TEXT/UTF8# g  n+ t0 w4 e5 T- D
Codec ID/Info                            : UTF-8 Plain Text
# B: u; D8 f1 kDuration                                 : 1 h 8 min
& \- z: D# p5 cBit rate                                 : 80 b/s
" f7 A& ]( D% u5 a( O. J! CFrame rate                               : 0.221 FPS
# |: E3 e. J+ G/ SCount of elements                        : 901: C" f5 a) `2 d. S# y
Stream size                              : 40.0 KiB (0%)/ A  N  g8 y, g0 A5 k5 G4 h- P& B
Language                                 : Norwegian Bokmal
' I; ~) e- q5 D; I5 N3 S/ ?* T! lDefault                                  : No
4 w0 S, \4 B/ D" r8 S4 M9 YForced                                   : No) L( z# K: k  @' D
Text #224 Y8 M3 b! X3 `& |- ?
ID                                       : 24) u* o! r. H* l7 d1 X. \
Format                                   : UTF-8
. w& D# L9 L# GCodec ID                                 : S_TEXT/UTF84 k+ `- K& W$ y+ T
Codec ID/Info                            : UTF-8 Plain Text# _* {/ `- V. x2 t
Duration                                 : 1 h 8 min7 k: `* l5 u& s) f
Bit rate                                 : 71 b/s
* h# T: B# D) yFrame rate                               : 0.240 FPS
- w9 h% ^+ y. E+ n* f* ^9 P: LCount of elements                        : 982
( x9 J3 R& l" a8 S( SStream size                              : 35.9 KiB (0%)
* T  C* w! d. Q# w  S7 z5 p8 cLanguage                                 : Dutch
2 M5 G% @" c/ t7 p! }8 [9 lDefault                                  : No
8 l. o1 h) E% E% z/ b, RForced                                   : No
6 Y# |5 J- J7 k. YText #23* L  V: e! z, A& b- \5 b% g8 `
ID                                       : 25; _) g) \2 i8 v
Format                                   : UTF-8
% n. Y& C, y1 k8 X. w2 b" P0 SCodec ID                                 : S_TEXT/UTF8) w/ ~: W. \& J; U  u
Codec ID/Info                            : UTF-8 Plain Text3 d5 Z& W7 V, `4 A. g, O7 C* j9 ]' T- j
Duration                                 : 1 h 8 min
3 q" b, y* F# ?3 I% E7 N' \' q5 c! z' hBit rate                                 : 79 b/s
8 \. b) d" i  N/ k# `Frame rate                               : 0.269 FPS6 c9 c2 h+ E5 V; _3 m. u
Count of elements                        : 1099
# a& J/ D: M! }( T  C: \Stream size                              : 39.5 KiB (0%)
. h9 {* X6 b  DLanguage                                 : Polish
$ y5 a) ]% a: u$ S- pDefault                                  : No) r# |9 G- N/ L# G
Forced                                   : No8 H2 w- h. r5 u8 l
Text #24
  i) u2 }% k! B6 ?  _0 K+ I3 bID                                       : 26$ F" I$ h* [7 `' D8 x
Format                                   : UTF-8* @) ]$ Y$ X% f2 `& R$ U2 M! v' e
Codec ID                                 : S_TEXT/UTF8; g  [  I6 V9 f5 w. _7 `0 |: i
Codec ID/Info                            : UTF-8 Plain Text
: }+ ?- w* o7 \1 N$ \* NDuration                                 : 1 h 8 min! w- v# f. T, a4 e1 a; u  r
Bit rate                                 : 84 b/s
0 f$ ^/ E* E, y; ~" jFrame rate                               : 0.275 FPS& ]/ G; a, d% A4 N7 u" R# `
Count of elements                        : 11242 o( H% j+ f% s, D$ P4 B
Stream size                              : 42.4 KiB (0%)* ]! m( Y) W$ m( y- t0 B
Title                                    : Brazilian# ^1 j7 O* J9 Y: t$ J. R
Language                                 : Portuguese (BR)5 J  l) R: v, s6 s$ f- |
Default                                  : No
7 I, T2 c* s9 WForced                                   : No1 a# u  x. n, d
Text #255 @. w  ]+ m4 S9 e, q
ID                                       : 27% {) c! G' Z7 U3 L0 ?
Format                                   : UTF-8$ p( K- n2 C! u! a
Codec ID                                 : S_TEXT/UTF82 F& y3 p" ~; }- C1 }' c; \% r
Codec ID/Info                            : UTF-8 Plain Text
( T  o- }0 a+ [8 z. cDuration                                 : 1 h 8 min
' ^: ]5 z' E" o1 F  `; F, |0 j, XBit rate                                 : 86 b/s7 \; T; s3 f9 T$ f: v
Frame rate                               : 0.255 FPS
8 n3 h/ B+ C  ^' F( t3 yCount of elements                        : 1041
! Y# I* ~- P/ T) e5 K4 m5 VStream size                              : 42.9 KiB (0%)9 y! |8 U; Y0 ~$ e" |: Z- g9 X
Language                                 : Portuguese (PT)
) W- o; A6 C' ~- p) i* bDefault                                  : No
' }: @+ Q9 I/ XForced                                   : No! d% |- c( j7 i, ~7 k3 M! W; Z
Text #261 p$ q0 |( v& M# g% ^4 o. u
ID                                       : 28
; Y2 k; p. A7 X& ~9 s- ZFormat                                   : UTF-8/ G# S" f8 `4 y* W* [
Codec ID                                 : S_TEXT/UTF8
% y$ x3 r3 |4 d5 r% Q. I+ A! |  JCodec ID/Info                            : UTF-8 Plain Text$ C; B  k; B% W7 p% O6 S
Duration                                 : 1 h 8 min  H( j7 z, J9 o* O
Bit rate                                 : 98 b/s2 {* r- L- _& M  q0 `
Frame rate                               : 0.265 FPS
/ H$ W3 F, w9 L# dCount of elements                        : 1085
  n4 P3 g0 z0 a3 CStream size                              : 49.2 KiB (0%)
* K: }; j2 r, S* p/ ALanguage                                 : Romanian3 L3 @8 z% h7 D4 l/ M& E2 R' _
Default                                  : No
$ x* y0 O" E6 o) ~Forced                                   : No
* j* ^* ]7 Z6 KText #27
3 v- N# V9 R  gID                                       : 29
  M1 [  V9 j# k4 C6 @- z/ N  f! B2 {/ {Format                                   : UTF-8
3 }/ ]1 [2 u. I0 {+ s4 bCodec ID                                 : S_TEXT/UTF8
; q7 N: f0 b( s. f5 YCodec ID/Info                            : UTF-8 Plain Text
; \+ g8 S5 \; m( p% XDuration                                 : 1 h 8 min4 S6 j, f- |. q! V
Bit rate                                 : 132 b/s- D) s3 |: V3 v
Frame rate                               : 0.276 FPS
9 ]5 c% W% i+ {- _, p& o. B0 r; v6 ICount of elements                        : 11295 p  K% o: d+ g% s# U
Stream size                              : 66.2 KiB (0%)0 i/ ?0 g! c* m4 Y' t, f
Language                                 : Russian4 b9 U+ n' Y1 {
Default                                  : No. f) o( k4 }5 z  x( R* I
Forced                                   : No
- t  S. x/ T8 @6 \Text #28
# P& v$ c' L6 A: E. QID                                       : 30
  `3 M( G" k) gFormat                                   : UTF-8
, }% {7 V* B4 K2 c8 ?7 {) Y  LCodec ID                                 : S_TEXT/UTF8
( \2 R- o6 H, E( l) B, _4 Y! RCodec ID/Info                            : UTF-8 Plain Text6 {' Q  w* _0 h3 ^  p- _( B
Duration                                 : 1 h 8 min
! U/ O" i0 Q0 X/ FBit rate                                 : 87 b/s
# I0 _/ a- Z9 c+ ^: b8 tFrame rate                               : 0.270 FPS7 ?! G/ d1 }9 S( ]' D1 G% {% v
Count of elements                        : 11029 K/ b8 ?1 Y3 ~' x0 p6 g0 X; U
Stream size                              : 43.9 KiB (0%)$ T& N# Z  }5 H0 ?
Language                                 : Swedish* z2 a1 W4 @( V
Default                                  : No- D$ t  S8 d( g  K, j
Forced                                   : No/ m' A. ~# ?7 l' l
Text #29
& p! h; p( `; `6 M7 @$ D: jID                                       : 310 ?+ A+ g& C( B/ J- i/ r
Format                                   : UTF-8: l5 h. K4 L7 ]# Q) X
Codec ID                                 : S_TEXT/UTF8$ O6 e8 h% g2 d
Codec ID/Info                            : UTF-8 Plain Text3 s, f4 X  `5 P$ [: A# S4 }
Duration                                 : 1 h 8 min
4 ]5 ^0 ~) w3 U3 D) w& m- e5 h/ wBit rate                                 : 219 b/s% y% X5 Z2 I; @$ z
Frame rate                               : 0.283 FPS
# w7 ~- M: E8 q$ jCount of elements                        : 1155+ j: |3 i& |/ u  d! p
Stream size                              : 109 KiB (0%)" |0 [( G& B- A  P1 @
Language                                 : Thai
1 C% `6 |; D  T0 H8 xDefault                                  : No* y" s' G' S. i2 Y" r9 T
Forced                                   : No
7 h( _' E  e) d; }Text #305 Q* |4 \& L+ }
ID                                       : 324 V+ `# h8 x4 `, z' i! `
Format                                   : UTF-8
# r( O. l" v* [% q2 a2 C: n4 @) eCodec ID                                 : S_TEXT/UTF8
8 @. A4 H4 h! m4 `9 t1 mCodec ID/Info                            : UTF-8 Plain Text1 P6 @# p( T; K" H5 r6 c7 r  w
Duration                                 : 1 h 8 min
% N+ S3 `3 W$ h" O- Y" u* S6 vBit rate                                 : 84 b/s
* w0 _4 x; i  y$ K$ }' UFrame rate                               : 0.270 FPS5 x# s* D" k# _) n  k- Z1 f
Count of elements                        : 11031 w0 U  k6 L: q
Stream size                              : 42.0 KiB (0%)
! n$ x" C# H# {! \( N# ~, CLanguage                                 : Turkish6 L* Y1 U- Q8 Z6 k2 m  q; O
Default                                  : No/ n. z8 ~: f( c3 y+ X9 `$ ^  X5 X
Forced                                   : No
; Y& }/ V" u& K9 S; ?! HText #31
" @# ]+ Y" N" `2 k, V2 LID                                       : 33
  f, b# U4 [6 {; rFormat                                   : UTF-8( L) F/ k% ~- P3 A: Q1 d
Codec ID                                 : S_TEXT/UTF8* ^2 \' b- m8 n& v8 [$ q4 |
Codec ID/Info                            : UTF-8 Plain Text
6 s4 J" u& M5 ?Duration                                 : 1 h 8 min
, H/ y3 _7 }' t' R; n7 q: h( G$ mBit rate                                 : 146 b/s6 Q" E+ @/ I3 g( ~
Frame rate                               : 0.278 FPS* O/ k  I1 V7 \0 a$ b. h/ j
Count of elements                        : 1138/ `* O; t: H) [1 o! h' \
Stream size                              : 73.3 KiB (0%)
! ~- R( E/ o! @Language                                 : Ukrainian" _5 O7 T5 U, w1 a+ S
Default                                  : No2 g& \) Y. k+ T) L5 z9 `! W- W6 Q
Forced                                   : No
/ r8 y3 H/ p- h3 g# _0 _7 {; ?" |Text #322 t( Z: d- N: N$ t
ID                                       : 34$ x( w3 g7 ^+ {) `
Format                                   : UTF-87 ~  _5 ^+ L3 ?0 J% H3 f0 L
Codec ID                                 : S_TEXT/UTF8$ w7 W/ r1 X2 b$ y4 O$ I  ~
Codec ID/Info                            : UTF-8 Plain Text2 g) I% g" v+ Q' H& l$ e
Duration                                 : 1 h 8 min
: F, x5 r% T# cBit rate                                 : 120 b/s: ?* a. v' A- J
Frame rate                               : 0.269 FPS+ _% m/ g4 n7 S; p7 b
Count of elements                        : 1101
, b4 r! T( ~* C8 F) xStream size                              : 60.3 KiB (0%): I/ }' A' M" B& A1 x
Language                                 : Vietnamese* [$ e$ |8 f: T( m
Default                                  : No
* \" Z) ^8 E# E5 M7 eForced                                   : No
4 i6 y/ X# E: Y/ I- i4 ]6 W4 k1 dText #33: T- H$ k  ^1 z3 y' Z, ^
ID                                       : 35) B9 q8 ?3 O, Q6 A& ^# s
Format                                   : UTF-8) ^6 f. d" e  C$ [
Codec ID                                 : S_TEXT/UTF80 w1 d6 z, ^1 r* z  O
Codec ID/Info                            : UTF-8 Plain Text
2 Q2 i; P# P% h) ZDuration                                 : 1 h 8 min
" a7 ^' v7 [0 \1 ?8 I3 _Bit rate                                 : 94 b/s
% `* M2 M; ?4 @& n- h( l. j+ SFrame rate                               : 0.275 FPS2 v  \6 ~0 q5 ~' v8 f3 E9 i
Count of elements                        : 1126
* S4 I2 t/ ]1 E5 l/ e& l) CStream size                              : 47.0 KiB (0%)
+ I3 n% J9 ^0 Q9 `3 l! I+ tTitle                                    : Simplified& n5 _& N& h0 s) f9 r! v
Language                                 : Chinese (Simplied)
7 f0 ^4 f8 `3 a, e; `& T3 v% F5 DDefault                                  : No
6 g9 _' D, }6 c" J+ k- E$ d; y, V$ @Forced                                   : No
: H7 V9 h: K6 B: R/ d" k& P% yText #34
& z& ?+ ~- x8 C' vID                                       : 361 ?0 Z6 Z5 ^: K# J  H
Format                                   : UTF-8( Z( Y! B) u  O7 n5 q; B; A0 {
Codec ID                                 : S_TEXT/UTF8
- n$ X/ z8 s6 r# gCodec ID/Info                            : UTF-8 Plain Text! i; c# J7 t* \- Z/ _
Duration                                 : 1 h 8 min
# l/ D) y$ U0 WBit rate                                 : 86 b/s3 [; H1 {0 v; W6 C7 U7 u( d+ k
Frame rate                               : 0.270 FPS4 ?* s9 {. F0 o: Y3 e
Count of elements                        : 1104- @$ ~* }4 X4 N' M  l  S
Stream size                              : 43.2 KiB (0%)$ _9 f8 E* }: p+ V! k( _) Q) |3 l
Title                                    : Traditional# [$ Y- `+ d: x# @  d& O- u
Language                                 : Chinese (Traditional)
1 c/ m: f  ?! x; t$ _6 O" pDefault                                  : No
( m: ~! u/ ^2 O' E2 XForced                                   : No% A- ?- ?, v5 J! w4 e1 Q& \
Menu+ C3 o/ T: }3 r- [
01:04:56.000                             : en:End Credits
) J$ O1 n" R7 t6 R

( b2 [$ ~7 S1 W! {9 r. F体坛秘史:AND1的兴衰[中文字幕].Untold.The.Rise.and.Fall.of.AND1.2022.2160p.下载
0 n* Q( {) j; e' x
! T, `( L. `: O体坛秘史:AND1的兴衰[中文字幕].Untold.The.Rise.and.Fall.of.AND1.2022.2160p.NF.WEB-DL.x265.10bit.SDR.DDP5.1-COPiUM 8.23GB1 f- m6 \: n/ d& A0 q% m

Untold.The.Rise.and.Fall.of.AND1.2022.2160p.NF.WEB-DL.x265.10bit.SDR.DDP5.1-COPiUM.torrent ( 21.26 KB )


/ [3 ~0 h2 d( P
, \7 ?: B! G( D% b3 ?体坛秘史:AND1的兴衰[中文字幕].Untold.The.Rise.and.Fall.of.AND1.2022.2160p.NF.WEB-DL.DDP5.1.DV.MKV.x265-COPiUM 9.12GB
; n, I0 [) Q6 W* ^

Untold.The.Rise.and.Fall.of.AND1.2022.2160p.NF.WEB-DL.DDP5.1.DV.MKV.x265-COPiUM.torrent ( 23.48 KB )


, P  m% v9 P9 p/ @# ?7 b% U
& V9 j% M+ g6 O+ i+ J$ H6 r体坛秘史:AND1的兴衰[中文字幕].Untold.The.Rise.and.Fall.of.AND1.2022.2160p.NF.WEB-DL.DDP5.1.DV.MP4.x265-DVSUX 9.12GB4 A9 X" S* D4 m( y% j) }4 L8 O

Untold.The.Rise.and.Fall.of.AND1.2022.2160p.NF.WEB-DL.DDP5.1.DV.MP4.x265-DVSUX.torrent ( 23.48 KB )

. J# K# \0 ^1 q; ~

- O! v9 W8 `$ z1 w. \体坛秘史:AND1的兴衰[中文字幕].Untold.The.Rise.and.Fall.of.AND1.2022.2160p.NF.WEB-DL.x265.10bit.HDR.DDP5.1-COPiUM 9.02GB
4 Q/ ?: G! P2 A, {9 ]4 U

Untold.The.Rise.and.Fall.of.AND1.2022.2160p.NF.WEB-DL.x265.10bit.HDR.DDP5.1-COPiUM.torrent ( 23.24 KB )


; |: H3 }  n1 L3 |8 `. N: Q$ P- s+ n! Y% k

  I  E3 Y2 `7 ?. c% j+ y* W' r4 h
& `5 ^  J4 c1 O" y
登录 发布 快速回复 返回顶部 返回列表