开启辅助访问
 找回密码
 立即注册

后裔:最后的奴隶船/非洲城的后裔4k.Descendant.2022.2160p.NF.WEB-DL.x265.10bit.SDR.DDP5.1-电影

#4k记录视频#时间:2023-04-28 阅读:395 回复:0

& n9 Z" B( |! I* f; F9 @ 110322bm0kkkoq7kkh50en.jpg.jpg
/ }2 a  |$ c; g$ s2 ^  E- g, w  {1 b1 D

8 {: \2 R5 s' L- w+ H: p: [: V简       介

6 h. l4 A3 X! W( `! g; e$ O" U4 w: l9 O8 L4 c9 F
  《Descendant》 带观众走近阿拉巴马州的小社区“非洲城”,听这里的成员分享个人和群体故事,她/他们的祖先曾经被押上历史上的最后一艘运奴船“克利提达号”,像货物一样从非洲被非法运往美国。数百年来,克利提达号的存在已是公开的秘密,如今这又得到一群海洋考古学家的证实。本片探索了这一发现对这群后裔的影响,她/他们将设法疏理过去,同时成为自己今后命运的主宰。
. |# V  |% _9 `6 P$ K, n
; e9 t! _; v3 B( \. c. X, q* X影片参数
后裔:最后的奴隶船/非洲城的后裔4k.Descendant.2022.2160p.NF.WEB-DL.x265.10bit.SDR.DDP5.1-电影信息
1 C6 H/ G# L& o+ EVideo
, A; v1 [, M+ C* o" [ID : 1  G  F4 z/ }7 H
Format : HEVC4 ^  Y2 v# w! f( f" V4 U
Format/Info : High Efficiency Video Coding. d' o) X" S5 ]0 j' v7 Z; u1 g9 r
Format profile : Main 10@L5@Main7 \& D& Y7 h& Y" Q
Codec ID : V_MPEGH/ISO/HEVC
. }! k5 `& e% tDuration : 1 h 49 min
' t/ O0 F) d" W; I+ |Bit rate : 17.6 Mb/s
" e# `+ ?/ J0 f9 M1 H& eWidth : 3 840 pixels# p: A+ Q' p5 a- M! z
Height : 2 160 pixels
& W8 T; l5 M: l( @0 WDisplay aspect ratio : 16:9# c% R3 j2 E/ t  _/ Z! d, ^
Frame rate mode : Constant
8 ~. `" n) `: B. h1 \$ O  T+ LFrame rate : 23.976 (24000/1001) FPS
+ I* k* P4 T7 v$ I9 DColor space : YUV( Z+ l, F) m2 @1 c4 L( [
Chroma subsampling : 4:2:07 |: w5 X- |: n+ t' K
Bit depth : 10 bits
* ~, M8 y2 ^9 ^* r# k: w4 eBits/(Pixel*Frame) : 0.088* _; h" z1 @- p" \. |
Stream size : 13.5 GiB (96%)# Z2 d3 P6 M' w, U! p: J8 `1 M
Default : Yes. }0 F$ H2 c* D* }: }$ N5 L2 k7 o1 c
Forced : No
. {/ [- G9 ^7 t& @8 BColor range : Limited; W! `  A6 C0 X2 g" |# O& Q
Color primaries : BT.709
- r; K5 c, R4 L. F0 [3 {8 ]: [Transfer characteristics : BT.709
$ s' g  ]1 ?0 A! q2 KMatrix coefficients : BT.709
" d: g  h9 R6 K: c5 y
& j& ^$ l  {% N7 q1 ^: G; Z& Q

7 E* c6 V5 a7 P* d% lAudio
9 o. J) B0 q' `. q# A( {4 C; @ID : 2  c5 I8 ~% k* c
Format : E-AC-3  q  e1 }6 P3 W" X( \) c/ G
Format/Info : Enhanced AC-3
% I; `9 T% v# m3 OCommercial name : Dolby Digital Plus2 m  @4 l/ v- z7 D0 m1 `% k
Codec ID : A_EAC3
# G$ s  s- a: |' `* K5 E" j5 g+ }Duration : 1 h 49 min# m$ C; V) w' Q) t6 V! l
Bit rate mode : Constant
& r" ?3 |+ i  J; c: iBit rate : 640 kb/s
. h" k* @: _5 n1 K5 S9 m  GChannel(s) : 6 channels
* k0 y0 h2 `: l" Z* m% s6 J0 mChannel layout : L R C LFE Ls Rs+ H; |5 o) z- E( M5 U
Sampling rate : 48.0 kHz
, E- M- O# k1 t( zFrame rate : 31.250 FPS (1536 SPF)- Z& P+ L0 Q" l" ?% A6 X7 m
Compression mode : Lossy7 b, T) T3 @1 N: }& \/ ~; z# c
Stream size : 503 MiB (4%)$ P; I7 s( b6 x: ?$ [2 H
Title : English0 X1 V; P0 e+ }% e9 H9 J
Language : English
8 C" V* D2 x! r; i% `Service kind : Complete Main
* d5 G& d3 A% T6 U4 }/ cDefault : Yes0 D" z! A* A# `3 Z2 x" J+ e, u
Forced : No
5 B, Z5 }% u' n) C6 f; I2 i/ ^6 F; `0 P5 o( K3 k; w3 O
$ ?/ A8 s3 Y4 d$ J4 \% E* k
Text #29& ~& x3 W: F- }+ t/ w" ~
ID : 31
9 e) H- E7 P( o" L  oFormat : UTF-8$ @6 B( f2 A- }& M$ c8 E: u
Codec ID : S_TEXT/UTF8
4 c5 x0 m$ Q- q% j6 ^Codec ID/Info : UTF-8 Plain Text1 i* T5 h6 E$ A
Duration : 1 h 47 min7 `9 _; l; r4 \* X. n! P
Bit rate : 201 b/s
% r9 \( M) ~% B! q7 b. ^Frame rate : 0.255 FPS1 ?2 O- Q. G/ y$ \
Count of elements : 1643
4 D  T$ W) F: l5 X/ xStream size : 158 KiB (0%)( ?: _% L' ^! k. S2 i; N
Title : Thai
: }7 k  B: K0 N4 [4 g: pLanguage : Thai
0 [0 k# l3 W+ J7 n5 P) s$ zDefault : No
% P! j! F3 G+ l% RForced : No
9 `$ [, v1 i/ o; n4 o1 z$ c2 h
# Y( b( s* ?3 h" ^- D- H

7 O' V* f8 `8 |( O/ t4 NText #30& h* Y* G" h6 E$ K1 f
ID : 329 {; }* b) l9 {! `0 V1 G
Format : UTF-8
3 e; p& H( r8 m' s* @& aCodec ID : S_TEXT/UTF8
: |4 f) ^% y  \# p* P8 e+ l9 PCodec ID/Info : UTF-8 Plain Text
. \9 j  _1 z3 |Duration : 1 h 47 min
9 N  u2 l4 N: }( z9 q; @/ T$ _  D  OBit rate : 80 b/s( Y8 R5 I9 [% M$ i
Frame rate : 0.240 FPS
2 T! L/ _. e% m7 K/ o& vCount of elements : 1551
; j7 O4 d& G4 a* IStream size : 63.1 KiB (0%): ^" S- B6 P1 }$ T6 j& k& S
Title : Turkish
% n! T/ W! Y- d) @* P. _, F! gLanguage : Turkish
& c4 e. T5 b; y* pDefault : No
: |! `4 c" u+ d3 |5 sForced : No
* {9 }! R9 C$ z" i7 {; d1 }8 L% R+ z2 p! o2 ?
1 ^; t, H+ r% c
Text #31
. Q+ d& P) p. O7 UID : 33
' Z, n$ k) l9 c/ `7 iFormat : UTF-8
5 m8 E0 V2 q( m% o% `Codec ID : S_TEXT/UTF8
; l& N. N" Y+ T2 ]& v- UCodec ID/Info : UTF-8 Plain Text
7 |  N# I2 i; z8 Y+ P1 u  ?; sDuration : 1 h 47 min
! W7 B( f* `- t% ]Bit rate : 138 b/s# ~3 o; T' {& ^& @
Frame rate : 0.248 FPS
& _5 w9 g$ u: w5 r8 ACount of elements : 15993 a- ?4 c+ O' V4 G" J
Stream size : 109 KiB (0%)
8 j: e& K, t. I( u) j! UTitle : Ukrainian
" ?. {2 R, e1 g0 P& `Language : Ukrainian' w+ U& f% @8 {! K+ f6 T! e
Default : No
* `& E  I0 `4 S2 HForced : No
5 J9 m" A5 r- K" L% x) {1 J1 q. n6 [# n6 x: r7 Z  |: p2 Z, j
# C# B  p. J- \5 p
Text #32% f4 C9 `$ v& A6 s" e- U
ID : 34* n/ }! s  p) l( G; h
Format : UTF-8$ `* H* _4 M8 d
Codec ID : S_TEXT/UTF8
( _: Y0 `# {( E. ]Codec ID/Info : UTF-8 Plain Text
: o+ k, S! A8 t2 [1 x" hDuration : 1 h 47 min
% r& k0 ^: c4 ~5 Z8 ?Bit rate : 124 b/s
# Q" n) R; U6 r* j  _Frame rate : 0.231 FPS: E- S! o3 q. e. ]1 m0 @
Count of elements : 1490- s, [, r8 b2 z+ A
Stream size : 97.8 KiB (0%)' W/ j) l) g/ l+ Y
Title : Vietnamese; Q- b. ?/ y6 N/ j. h2 [- J
Language : Vietnamese$ X; h1 P1 y4 V
Default : No
9 s2 N: ]8 ]1 X* oForced : No5 q: H: M; @3 o
6 I  O: s9 ]# ^+ v% z
1 A+ R: ]. A$ a$ |
Text #33/ x! R- p- L& r3 B
ID : 35/ b" F" y: r* X& G1 A6 w: }0 X( G7 o
Format : UTF-8/ ^2 Z, R' u3 d
Codec ID : S_TEXT/UTF8
- `( R, Y, X: k5 T: c* ACodec ID/Info : UTF-8 Plain Text) p1 d9 D  w* u- i5 Y
Duration : 1 h 47 min
7 l5 y! d) B2 IBit rate : 88 b/s
: j0 @; [, @9 Q0 lFrame rate : 0.256 FPS8 C5 ^2 p# X9 P& {( N7 z' U& E
Count of elements : 1648
) i) O% n5 o* |8 U. e# J% B3 |5 pStream size : 69.3 KiB (0%)  m; _3 O! l& S  R5 v9 T
Title : Simplified, Chinese
* q+ w7 F3 N9 ?4 k3 ~Language : Chinese  q; Z" y5 w' P/ z4 `+ B, h
Default : No
- j/ F: t" p( JForced : No- P$ v3 S( s% x, r! S$ ^$ V
! z$ z' {7 ~, x# {
; D9 F# W) Y7 C# E8 |5 v1 U
Text #347 A2 K+ R' r# g5 |& U( U$ @
ID : 36& E' s/ T7 c: v! V# _( {" R
Format : UTF-8
+ t+ }$ t7 V3 W0 CCodec ID : S_TEXT/UTF8
  O" m. R+ [* F. E3 `% NCodec ID/Info : UTF-8 Plain Text  q* a0 o0 F' [- c+ o( H, i# \2 Z
Duration : 1 h 47 min  z7 o( Y0 \# t8 r1 T; E9 v  O1 l
Bit rate : 84 b/s* f+ [) q+ s* k) \* P; X2 e! I3 `
Frame rate : 0.261 FPS
9 n. R4 Q0 f7 \3 LCount of elements : 1684
  ~2 }0 l" R; n5 AStream size : 66.4 KiB (0%)8 `; m" K8 @$ J
Title : Traditional, Chinese
* Y# e2 @* |' P) h& XLanguage : Chinese7 i) A, l2 e1 ?
Default : No: @. Y, j9 n- o3 L2 n# e
Forced : No
: E' V9 ]4 E' W% s9 [
: p% m# K) P: d- X9 R( ^$ K

6 L( ?$ r; M% g8 mMenu
) Y8 g1 L1 A* x( M4 x( s) _00:00:00.000 : enart 01
3 u; |( b! Q. E9 J01:44:19.450 : en:Credits

5 m* d5 V; f" f& d, [" Y2 J. ~/ v8 |4 d$ h8 V9 f# B
: n6 x" E$ O4 y6 S  K6 X( d% G9 {

, {  @* i8 k" H1 V' h2 i  h后裔:最后的奴隶船/非洲城的后裔4k.Descendant.2022.2160p.NF.WEB-DL.x265.10bit.SDR.DDP5.1-电影下载
7 }2 f6 I4 ~$ m& v- J3 U
4 u( B  x) l0 |非洲城的后裔4k.Descendant.2022.2160p.NF.WEB-DL.x265.10bit.SDR.DDP5.1-简繁中字【13.99 GB】( U) e. d& U! o2 m! W0 D

非洲城的后裔4k.Descendant.2022.2160p.NF.WEB-DL.x265.10bit.SDR.DDP5.1-XEBEC.torrent ( 18.13 KB )

5 `0 m- Y7 P9 D% x; C7 q

2 R* J; h. j' ?; F6 t% o7 K0 r* p' m
" d' k' l7 m/ ]8 L1 U  Y' O1 W7 q% }% m6 _
登录 发布 快速回复 返回顶部 返回列表