开启辅助访问
 找回密码
 立即注册

吉尔莫·德尔·托罗的匹诺曹:幕后匠人4k.Guillermo.del.Toros.Pinocchio.Handcarved.Cinema.2022.2160p.NF.WEB-DL.x265.10bit.SDR.DDP5.1-纪录片

#4k记录视频#时间:2023-04-28 阅读:340 回复:0

. j4 \" N; g, X: V- k 110700y1burgc2pwwgrr21.jpg.jpg
' {# n3 B6 c6 v8 `0 N; e
! H) i( J' Z/ j0 D: Z+ k# C
2 J, M5 ?0 i7 c: h* s/ i6 n; V简       介

4 t; F- k0 `% u$ a: u5 t% s, i7 _6 }
       幕后讨论动画技术和《匹诺曹》的制作。
6 `: j" z; f/ ^& [  O- Y  ^. F- B2 K+ Y0 p
影片参数
吉拿域戴拖路之皮诺丘:幕后匠人(港)/吉尔莫·德尔·托罗的匹诺曹:幕后匠人4k.Guillermo.del.Toros.Pinocchio.Handcarved.Cinema.2022.2160p.NF.WEB-DL.x265.10bit.SDR.DDP5.1-纪录片信息
& V( `, ^7 H. @/ N+ h  uVideo
" _. }: x& {& K7 D! j$ ?ID : 1
9 B# ^4 Z; E% \Format : HEVC  f; e( H# f4 x9 X- {0 V3 w
Format/Info : High Efficiency Video Coding& P. R  }  E/ Z
Format profile : Main 10@L5@Main
3 A" }* w4 Q9 a; h# m5 J( ~5 u* Z. gCodec ID : V_MPEGH/ISO/HEVC
7 b6 @3 @/ d6 O' K8 WDuration : 36 min 45 s
; S( S$ P' Y/ TBit rate : 12.0 Mb/s/ R; J* N/ ]# m; m$ q' ~- R
Width : 3 840 pixels
' r6 _2 i; K, \( C, I$ dHeight : 2 160 pixels
& R+ v4 a: _; e7 ]: k, |  i* E& h0 QDisplay aspect ratio : 16:9* f  B* o& |  S9 F% ?9 z+ R
Frame rate mode : Constant0 f' A' i; D; G7 G( b" t
Frame rate : 23.976 (24000/1001) FPS7 z  ?9 m  @8 ^( t7 m  J
Color space : YUV
3 `. Y" z$ N) Z3 i: @. e. \1 ?Chroma subsampling : 4:2:02 d* J( v2 U4 |2 G% g
Bit depth : 10 bits8 w% \' {8 C8 o1 i
Bits/(Pixel*Frame) : 0.060* }# V* e" l4 r
Stream size : 3.08 GiB (95%)
" \. P* b; o' @' Z. u/ j. ]Language : English
, o* k6 D/ x) B" O2 l/ G* d4 {Default : Yes2 D' o* \7 o' c5 J
Forced : No
) Q0 J1 L. f6 t1 R* o: a6 _5 D! L; YColor range : Limited
2 y) Z+ O3 a$ k5 ]% Z: T& ^; \+ \Color primaries : BT.7097 ~+ W' E/ A1 w/ N% l. f  N; G( `
Transfer characteristics : BT.7096 ~0 D5 p/ d( h
Matrix coefficients : BT.709# q- A) n- I" \( I
) Q8 N6 k: M0 K4 S% m
! a0 l4 V& T; j1 d) U  n- S2 `
Audio
' _6 l+ m0 }4 _  {' h5 c5 dID : 2
  r9 t0 \. U+ N' ~  t) o, gFormat : E-AC-3
1 ~8 ^6 Z2 y5 V: d* hFormat/Info : Enhanced AC-3
* _  O: m4 J8 Q  Z) a. R& HCommercial name : Dolby Digital Plus
2 g, [/ |5 w2 u& d& W" F1 pCodec ID : A_EAC3$ H4 B8 P8 x; ?3 w5 g- c
Duration : 36 min 45 s
  U8 {3 P2 y9 o  Z% zBit rate mode : Constant
7 z2 S7 {) _1 ^" nBit rate : 640 kb/s" j0 b1 Z* \2 P1 F( q& k3 G0 i
Channel(s) : 6 channels
! d% J. O6 H* Y1 }. aChannel layout : L R C LFE Ls Rs! i( ]! K9 M$ P# R' D, f- E- H& K
Sampling rate : 48.0 kHz) _/ w0 D4 X; ~# w
Frame rate : 31.250 FPS (1536 SPF)
  `( f' K+ p, P0 s+ S& ICompression mode : Lossy2 H8 t' [" c" O: ~9 c! R8 w4 E
Stream size : 168 MiB (5%)
2 A* k- ^5 R7 L- X' qLanguage : English
8 h! ?% n0 \: N! `  G- M9 `: k! v, t2 KService kind : Complete Main9 l9 Y0 S) N7 U; S
Default : Yes; \6 w8 I! s. Q! |
Forced : No
( s8 L* d8 L2 ?6 x" s- i0 i6 D: x! `: y8 J' [9 i6 [
9 |1 E% o& Y% I+ u! }; Q. Q
Text #29
* ]4 [: X' _* [* b3 a( ?; E. |ID : 31* n) O/ r" N8 L! A  _+ }
Format : UTF-89 C2 Z# D! o5 G" y! N* T# T; h$ S
Codec ID : S_TEXT/UTF8
- o) ^( ~6 o  N5 i8 z7 qCodec ID/Info : UTF-8 Plain Text7 S. n: }( ~7 p  {2 k% z$ e
Duration : 36 min 32 s: M9 ?# w* [! H0 Q" w) k0 U. Y% l: l
Bit rate : 113 b/s
9 E" S, |# t! s8 c- NFrame rate : 0.290 FPS3 W& S5 n* d0 G( S7 X; g# @
Count of elements : 635% U( X# ?' H5 H3 d/ G
Stream size : 30.4 KiB (0%)
+ B% c0 G; o8 y, N$ ]" T* zLanguage : Romanian* M( ~- {. j* \" w' T
Default : No" V: Z) k2 Z/ M4 U
Forced : No
8 o# U3 ?) P' _- \* l3 u5 B% ?( T! N5 D  e/ b) p
4 }3 d+ r; g# W0 ]& R# {; F$ `! S' }
Text #308 }1 ~0 W+ N% D
ID : 32( T& A1 ?6 z4 d& A
Format : UTF-8
* p% [( e$ {5 L* kCodec ID : S_TEXT/UTF8* Z8 v2 h/ S0 L6 g& H
Codec ID/Info : UTF-8 Plain Text
  L+ G( p+ I+ q7 R% I% s, ]; ]Duration : 36 min 32 s
: x6 b8 K$ e* zBit rate : 172 b/s
' c2 p6 l& r* o* o2 l: kFrame rate : 0.293 FPS/ J& u! g/ J. m1 l5 J
Count of elements : 6424 Y' f2 N0 v. n, D
Stream size : 46.3 KiB (0%)
/ m& m. s+ M! H: G, a1 U9 O- r5 qLanguage : Russian
! {. V) p  s2 h# IDefault : No
+ P% r0 i/ T: f( X# }: CForced : No( f5 p' l3 J* D% S8 f% J
* a) P5 ~# G3 z2 F

; ~; P# ^7 d8 z$ ]& O- AText #31( ?' e4 w2 J& I3 P
ID : 33+ Q. ]% D8 y6 n/ w; j2 v
Format : UTF-8
$ m- A6 R; t+ L8 jCodec ID : S_TEXT/UTF80 h6 s1 M0 V! d9 T
Codec ID/Info : UTF-8 Plain Text; P2 S% W0 w4 z6 {' [/ @3 E
Duration : 36 min 32 s, q* k8 }. w! H+ z
Bit rate : 96 b/s$ k# P& T8 M& K' e. |
Frame rate : 0.259 FPS, M) b0 T& o. Q) j) [! W$ Z" a
Count of elements : 568  g" U1 ?8 c. k% V0 P
Stream size : 25.8 KiB (0%)
+ i; P: k, i3 Y+ {7 f6 kLanguage : Swedish5 }  `6 m0 F1 S
Default : No
8 y. i  K! f5 b' O5 zForced : No
( H6 }) J8 o3 J( J8 X: A) U  A' d7 q2 |2 G
1 T" Z' g6 F* ^0 g
Text #32
3 F" E. l3 W: F  gID : 34
- T* I; f( Z# c9 B$ Q4 @; eFormat : UTF-8; I5 o, D% N+ N" L
Codec ID : S_TEXT/UTF82 u0 n& {9 a3 R: l
Codec ID/Info : UTF-8 Plain Text  R7 }# t% `4 V+ N% g: ~& W, l
Duration : 36 min 32 s- d& r" R3 [" V- [2 T; b
Bit rate : 276 b/s6 u  A( K$ q9 |! o: v  N- u
Frame rate : 0.312 FPS: H' T! d8 E: ~6 K# p
Count of elements : 683
3 T* F2 G7 o& E3 m0 J6 kStream size : 74.1 KiB (0%)
' u4 y+ \$ T1 X) S' h4 l( s( ]Language : Thai% {/ h7 V+ t2 k
Default : No
* ^9 A* M8 D7 nForced : No; \' {" L5 c1 J" k- B$ W6 _
6 K1 ~7 I% a" W

6 K: q1 k) J+ \, P: q1 BText #33
8 m, @" h0 d5 x5 Q2 o$ B7 f7 uID : 35- D+ h% b  X7 z! ]$ \
Format : UTF-8
! S; t5 x. f5 N* {Codec ID : S_TEXT/UTF85 ]( B8 ^. W  q2 p
Codec ID/Info : UTF-8 Plain Text
1 o" K$ E) f3 n; v! Z0 R% @Duration : 36 min 32 s( H/ l7 @# D: m# p
Bit rate : 104 b/s
+ _. d8 n- ~5 w$ P3 sFrame rate : 0.253 FPS
# N  E! N' u! l* r' ~7 mCount of elements : 554
6 M1 Q: d* I" `2 t% ~6 _/ c& ?Stream size : 28.0 KiB (0%)
# w  Y- R5 m0 h8 ?" `2 b2 s% l; lLanguage : Turkish: v1 x% }% r! n; r; W' l# U' G0 V# P! T
Default : No
; X8 v8 c) Y% FForced : No* `  T7 T3 Z8 _
5 A3 A& ?' x+ t3 F) n; O+ h- w
1 T% ~7 d/ s* [' X3 d: a4 y
Text #34
$ m+ [% p! i6 g2 ]ID : 36/ d; q& L( i& }. Z+ j, y9 `6 ^
Format : UTF-8
# f" g* u# O+ X2 P2 H3 xCodec ID : S_TEXT/UTF81 p& c2 y7 e/ h  y- n
Codec ID/Info : UTF-8 Plain Text* N+ G% {, h, Q; @
Duration : 36 min 32 s; \- T- ^, c: l" J4 D
Bit rate : 178 b/s+ L7 l$ ~) U3 F( [' [7 d
Frame rate : 0.303 FPS
0 x3 y; [; Q) E# m4 K( x/ J2 B/ JCount of elements : 6654 F+ H; B& G( @! E; u8 r
Stream size : 47.8 KiB (0%)% C6 q# S2 y0 k( c* x% b2 @  o( S
Language : Ukrainian
6 x  H! v  j" A: k( A; c  k$ P4 D) oDefault : No
) J& `& I& H* ~: Q  A3 c7 gForced : No9 Y  C- W9 Y; h$ i/ J
. o/ z, M9 {& Y: n

! ?2 d1 [% g3 V9 X0 [3 h* _: o, yText #35
4 U, x9 i& q8 s! }6 rID : 37
3 ?- |. x; p% M2 c6 hFormat : UTF-83 y' ~) f) e8 p- I' `4 F
Codec ID : S_TEXT/UTF8
! Y+ Q7 I9 Q8 h6 j$ g2 e' MCodec ID/Info : UTF-8 Plain Text3 @# K# {# H4 H1 q: x7 \" }
Duration : 36 min 32 s
7 a4 S4 S1 b, I/ t0 fBit rate : 143 b/s
9 ~! ?6 b/ `9 _$ l( T1 FFrame rate : 0.301 FPS
$ L5 c. ^3 o8 N5 H2 h: `. jCount of elements : 660
9 W4 I2 }/ p& O' D7 i' ?Stream size : 38.5 KiB (0%)
$ m' q4 [: g$ p; v4 y, A- nLanguage : Vietnamese
& l6 K9 ^1 k7 g% l2 A( `Default : No
9 b& r0 \9 ]' X' b8 o8 [Forced : No+ s  n, @1 i. {7 E! I5 P$ _# B

. p1 e9 G9 B+ F
, c$ Z! S9 ^: ~* C6 U
Text #362 m1 t8 r$ }; p
ID : 38' n: j; `8 N1 y4 Z
Format : UTF-8
& v$ T2 {5 S: }& |- l. gCodec ID : S_TEXT/UTF8  U/ V  f3 q& B( G! u/ G' d" ?
Codec ID/Info : UTF-8 Plain Text
. j% I. t. w' G& KDuration : 36 min 32 s: z9 |- l# I. B: H
Bit rate : 101 b/s: n6 Y" _4 I. S+ F: R
Frame rate : 0.311 FPS2 t, d! l% Z% I7 X$ |; _; Y% V* a
Count of elements : 6825 J+ l& J: T) m6 g# G
Stream size : 27.2 KiB (0%)
3 Z7 Q! u# n- M( O7 nTitle : Simplified8 P2 I1 I& l$ J1 a+ q
Language : Chinese (Simplied)
$ Q" M0 b. j( t% k7 XDefault : No
- C1 S* W% ~/ C# a7 ~Forced : No$ j3 R1 B0 @. ~' n; j/ U- [

/ J1 B/ Q% W* q7 Y' u. D) s" q' O
- L1 g  U6 T: T, [3 S0 s, n6 Q
Text #378 ]4 h  L4 o( N9 E6 e. ?$ Z! Z! H" [
ID : 39
2 c# ?1 Z4 o' I/ V2 {  cFormat : UTF-87 ?  b: k; N! k6 S  s
Codec ID : S_TEXT/UTF8
' m8 e: L* E; v! r: z- p% d- N! R6 dCodec ID/Info : UTF-8 Plain Text
+ ?3 @! G! h, x. u; ]& ]0 QDuration : 36 min 32 s" `7 O3 e' d" I3 o- a1 p
Bit rate : 89 b/s9 @+ S. m# ~) S/ y* r4 k& r
Frame rate : 0.308 FPS
5 m0 }1 I% i* o+ J2 Y& s, |Count of elements : 676
  F5 v' w0 R6 cStream size : 24.0 KiB (0%)! Z* Y3 I: Q1 ~# n) }, X/ M
Title : Traditional
- w0 o4 a6 u) ]' E  g: \' }' j' ~7 Q; qLanguage : Chinese (Traditional)5 {/ J! ^+ z( Z% |3 L1 \0 F9 N
Default : No* z, B3 I6 o' x4 o* |* Z
Forced : No
, R, Z2 _9 d  d( A8 c# i' X% H1 H, @

5 E/ O' v2 e# zMenu
3 m" M/ E/ \: {7 ?% s! H00:36:39.000 : en:End Credits

0 Y0 [0 u: ]! R2 i. O: g) _1 T' p8 w) L8 z7 P

/ S# f) {9 H; m. a吉拿域戴拖路之皮诺丘:幕后匠人(港)/吉尔莫·德尔·托罗的匹诺曹:幕后匠人4k.Guillermo.del.Toros.Pinocchio.Handcarved.Cinema.2022.2160p.NF.WEB-DL.x265.10bit.SDR.DDP5.1-纪录片下载0 D# f0 V2 D/ p) r$ L

" O) z! X- z$ y! Y9 ]吉尔莫·德尔·托罗的匹诺曹:幕后匠人4k.Guillermo.del.Toros.Pinocchio.Handcarved.Cinema.2022.2160p.NF.WEB-DL.x265.10bit.SDR.DDP5.1-简繁中字【3.25 GB】
: Q6 G% i. s* D/ S. v* K

吉尔莫·德尔·托罗的匹诺曹:幕后匠人4k.Guillermo.del.Toros.Pinocchio.Handcarved.Cinema.2022.2160p.NF.WEB-DL.x265.10bit.SDR.DDP5.1-SMURF.torrent ( 16.95 KB )

& l+ ?; ^  N6 R

. a& N2 J4 y! O0 _) U6 v+ n) g4 {  I& r  K! b! ~6 N& Z0 s
- w8 B: U2 F$ c7 N6 N
登录 发布 快速回复 返回顶部 返回列表