开启辅助访问
 找回密码
 立即注册

一落千丈:波音大调查4k.Downfall.The.Case.Against.Boeing.2022.2160p.NF.WEB-DL.x265.10bit.HDR.DDP5.1-纪录片

#4k记录视频#时间:2023-04-28 阅读:422 回复:0

& H- O' A% r4 a; J$ [
" N8 c0 _2 P( y8 n
1 @2 I* _( k& d: c! l7 O; D 175732cezeo3522103vibi.jpg.jpg % ^3 J  J* d4 W
- L: v+ @( J2 l+ I

) f9 q# k6 e+ y( b! @; ?) D4 C简       介

* T0 ?/ P7 k* o: D6 I  t1 O# w4 I- f- F7 e+ |3 Z, }
  在《一落千丈:波音大调查》这部令人不寒而栗的纪录片中,曾获奥斯卡提名的电影人罗瑞·肯尼迪揭露了企业对问题的漠视和贪婪如何导致两架波音 MAX 737 飞机在短短五个月内相继失事。在航空专家、新闻记者、前波音职员、美国国会和受害者家属的主导下,这部电影揭开了一家曾经备受推崇的公司背后一味削减成本和掩人耳目的文化。《一落千丈:波音大调查》痛斥来自华尔街的败坏影响,并指出美国企业所秉承的理念的危险之处 — 有时这甚至事关人命。本片由罗瑞·肯尼迪执导和制作,马克·贝利制作和联合编剧,布莱恩·格拉泽和朗·霍华德监制。6 H9 M' h7 s2 h5 N6 l4 w; ~, f% ^
% F7 M4 c& c8 r2 u9 p( u. s. u
影片参数4 n5 I7 S; E' g5 \# D( v! P

5 r( l8 U1 A1 ^
一落千丈:波音大调查4k.Downfall.The.Case.Against.Boeing.2022.2160p.NF.WEB-DL.x265.10bit.HDR.DDP5.1-纪录片信息
$ G, r. |5 i  Q( }Video4 ]. e* ^/ t+ {2 u$ r+ `
ID : 1
& F7 v: V+ L+ ^( {' d, `: hFormat : HEVC: @9 A! j0 ?9 u. v. P
Format/Info : High Efficiency Video Coding
. g1 ?+ N$ I1 [* q4 N( C/ zFormat profile : Main 10@L5@Main) J5 ]% G: q/ p9 @" n
HDR format : Dolby Vision, Version 1.0, dvhe.08.06, BL+RPU, HDR10 compatible / SMPTE ST 2086, HDR10 compatible; {, f5 Q" j( Y! ^& m) l6 n
Codec ID : V_MPEGH/ISO/HEVC7 [+ K: J! t/ Q2 b+ Q
Duration : 1 h 28 min
6 U. N* D' ?3 f0 H; b. a" hBit rate : 14.7 Mb/s
* S0 F) |# V/ Y" R1 p* ~' QWidth : 3 840 pixels, C- Y+ h$ G0 R" k+ y
Height : 2 160 pixels; F* K& Y3 p, s6 R3 O! C, Q; v& w+ s
Display aspect ratio : 16:9
: Z" D& i8 f% F" X( RFrame rate mode : Constant5 x# s0 I0 \# s0 ]/ R' B! F1 c
Frame rate : 23.976 (24000/1001) FPS( p' h, B, h% {% Y4 k6 w3 [7 ~6 Y
Color space : YUV
- y" R7 V; p: yChroma subsampling : 4:2:0 (Type 2)
' b9 `4 Y8 g& ^; D$ y, H3 a- b1 JBit depth : 10 bits
4 W9 G$ f7 O5 S- ?$ E- V# EBits/(Pixel*Frame) : 0.0740 X6 |, j( G+ m
Stream size : 9.13 GiB (96%)
5 p- e/ o& Q, E* e0 t1 ZLanguage : English: W/ g' n" N! S2 c" M2 B
Default : Yes
& s- ~7 m6 b* r% s8 k6 `Forced : No2 y, |+ [9 |# m' }7 F0 v
Color range : Limited
+ U/ ^' g; q4 _$ j  fColor primaries : BT.2020& I( Z% E# K8 W& z3 O2 a
Transfer characteristics : PQ9 c* ^+ |9 ~- p/ [. R" a. |8 [
Matrix coefficients : BT.2020 non-constant
/ {! J! E) w( ~9 |; w, L, ~Mastering display color primaries : Display P31 ]/ ^" }, h' T; V: B8 y+ o. u5 Y
Mastering display luminance : min: 0.0001 cd/m2, max: 1000 cd/m2
) n) @$ {7 ^5 f* @/ UMaximum Content Light Level : 1454 cd/m2
& Q+ u% N; v8 u* @: _Maximum Frame-Average Light Level : 133 cd/m28 u) A/ D* A9 Y8 C# K5 P# R9 i

# |- l& Y4 n: y9 ]" x9 z6 _& k- b

" i0 z) b/ H9 ^+ k. kAudio8 N, w: @/ v: p% p. {: z. m" h
ID : 2- K3 v2 z" U" `+ C
Format : E-AC-3( h4 C$ P1 z  ?) S# V
Format/Info : Enhanced AC-3$ P) e' w9 T) e3 ]8 ^* o1 n' x
Commercial name : Dolby Digital Plus
2 F! ]9 v7 m( t1 K! WCodec ID : A_EAC32 m' t2 d% h; Z$ E4 M5 B
Duration : 1 h 30 min; `$ h) i0 g9 b  b/ I' N6 Y: q
Bit rate mode : Constant9 d  h! K; d1 H4 L- R  `
Bit rate : 640 kb/s
  F3 l* N2 m0 D% ]9 |" rChannel(s) : 6 channels
, P( d6 w' b1 X5 W+ }0 N1 ?) yChannel layout : L R C LFE Ls Rs
* s' f; z& u' \' K0 \5 s" c: |Sampling rate : 48.0 kHz
( Z2 N) x7 g! {/ s) d5 OFrame rate : 31.250 FPS (1536 SPF)
: ~" C. J7 E  m9 ZCompression mode : Lossy
( q0 c, U8 {3 }# xStream size : 413 MiB (4%)
5 ~5 i$ M' c( J$ T# U- }& ~Language : English
% D2 A1 Y2 e+ P7 v& @& A/ D$ f' ~! pService kind : Complete Main
" V3 d& o1 O0 ~# s6 zDefault : Yes/ s+ M  ~7 T8 g0 Y  u! d3 q
Forced : No
' C% s* M) W. F3 Z( b; N" R/ u# A  p% M* L1 f, u5 n- ^& V) z' }6 s. Z7 N

) y$ {1 l% r, q5 v* [0 _Text #32
  n& y: _' b6 J5 fID : 34, y; `, V/ T9 f' O$ ]3 H
Format : UTF-8
0 y, b. H7 o5 _9 ?Codec ID : S_TEXT/UTF8
- ~6 B6 e& n' s. o1 FCodec ID/Info : UTF-8 Plain Text" l" U7 a9 x+ Y/ i$ n
Duration : 1 h 28 min, m( h& q  Z7 @+ L; P- x# u. u& e' }
Bit rate : 118 b/s! B/ p% m: ]$ k. H3 z, E
Frame rate : 0.256 FPS3 \: A& T2 d- G: I% h2 \2 g3 ]
Count of elements : 1360, A/ I2 q  X4 D! r* _" j
Stream size : 76.6 KiB (0%)( D% T" l4 G5 U+ P
Language : Vietnamese" p8 x& Z, D9 L; ]4 V
Default : No
8 r$ W: G8 n& r' G) R9 l! k  b, VForced : No
* w+ B! k! r0 s1 ~: k8 Y2 t& ~
+ V- b" B( b$ k9 l; f) R

* J. i# {" x# j3 ^' }Text #33
6 l( m, ^  L$ B4 @& NID : 35
4 G' m( O7 E( y" o& S( GFormat : UTF-8& E. Q( @/ S7 f  S6 O
Codec ID : S_TEXT/UTF86 ?; h% P9 a0 g* x2 G& Y
Codec ID/Info : UTF-8 Plain Text& {# u" X; p: A5 Q; Q
Duration : 1 h 28 min
6 K7 D, E. R0 ?# @/ k; ~+ Y% M' ZBit rate : 82 b/s
. X- L2 H* O! M. }) x9 }9 `Frame rate : 0.252 FPS9 R# C7 ~$ G* e  l$ m/ V& s
Count of elements : 1341
, Y6 ?. m- P  [' t- v: c/ D. t' SStream size : 53.8 KiB (0%)8 c- ?) ]& n5 d) C! q1 F) s( k+ d
Title : Simplified
3 w3 {: H& _' P0 g$ F5 B* SLanguage : Chinese (Simplied)7 n9 a: B9 L7 {* ~
Default : No" C4 @9 ?% R; z8 x% v; a
Forced : No& j/ P2 n5 V5 N; e
9 N1 T# C5 i$ i) C6 f3 [- D
! |, U- Q! D5 t" |7 I2 D$ M
Text #34
5 z+ u, D  c* @7 ZID : 36
' ?; @' S. ]* v- k8 KFormat : UTF-8
6 E( s" t& o8 I% Z$ PCodec ID : S_TEXT/UTF8  d1 X) D- {- p
Codec ID/Info : UTF-8 Plain Text
0 ?$ O6 e: U. D% B' bDuration : 1 h 28 min
4 ^: Q( W2 s6 m5 {7 C8 ^8 sBit rate : 77 b/s8 U/ T0 r; W! [8 f0 e( B; _7 w
Frame rate : 0.255 FPS
+ ?7 |  C5 {4 C" k, f& M2 M; wCount of elements : 1357
5 ~" H6 ~+ b% n+ B+ p" JStream size : 50.3 KiB (0%)
8 W) |% Z) g8 k7 R/ l& PTitle : Traditional
  \4 \$ V( ~7 V2 ^9 r7 w- \Language : Chinese (Traditional)
3 y4 x9 y3 a2 W8 j- f& ]Default : No
, b: S) N: K8 h0 L& K7 @& QForced : No
! |( z/ m% i7 ~3 b- J3 @$ ~6 s0 ~4 R' O
& H1 a! b2 }9 T* i  I( H+ n
Menu+ D5 l% Z& ~  L* V
01:27:28.000 : en:End Credits

! C. P7 C' _7 q+ \; D
( H7 |/ F5 c2 _7 K/ _$ M一落千丈:波音大调查4k.Downfall.The.Case.Against.Boeing.2022.2160p.NF.WEB-DL.x265.10bit.HDR.DDP5.1-纪录片下载. o/ N5 K. w* D3 b

/ ^8 W2 U5 B. M9 Q& L一落千丈:波音大调查4k.Downfall.The.Case.Against.Boeing.2022.2160p.NF.WEB-DL.x265.10bit.HDR.DDP5.1-简繁中字【9.53 GB】
8 C0 d1 R' Y  X0 y2 r

一落千丈:波音大调查4k.Downfall.The.Case.Against.Boeing.2022.2160p.NF.WEB-DL.x265.10bit.HDR.DDP5.1-SMURF.torrent ( 24.52 KB )

) x6 G  F0 I- U( g8 C' \4 I/ }

5 e6 d" E; S8 d8 t一落千丈:波音大调查4k.Downfall.The.Case.Against.Boeing.2022.2160p.NF.WEB-DL.x265.10bit.SDR.DDP5.1-简繁中字【7.70 GB】
5 @2 h# o/ A8 W1 B9 Q% l( P, O$ ^

一落千丈:波音大调查4k.Downfall.The.Case.Against.Boeing.2022.2160p.NF.WEB-DL.x265.10bit.SDR.DDP5.1-SMURF.torrent ( 19.93 KB )


+ z, f" a0 g$ a6 y4 x0 o1 |. W: O1 |' q: I; C4 b7 {
一落千丈:波音大调查4k.Downfall.The.Case.Against.Boeing.2022.2160p.NF.WEB-DL.DDP5.1.DV.MP4.x265-简繁中字【杜比视界】【11.88 GB】  t6 p8 W' M9 X' {

一落千丈:波音大调查4k.Downfall.The.Case.Against.Boeing.2022.2160p.NF.WEB-DL.DDP5.1.DV.MP4.x265-DVSUX.torrent ( 15.54 KB )

% m% h# J8 C' `

( Z7 [' ^3 K; Q: N1 r5 b, R一落千丈:波音大调查4k.Downfall.The.Case.Against.Boeing.2022.2160p.NF.WEB-DL.DDP5.1.DV.MKV.x265-简繁中字【杜比视界】【11.88 GB】1 P; ~5 e1 y, G+ s/ D

一落千丈:波音大调查4k.Downfall.The.Case.Against.Boeing.2022.2160p.NF.WEB-DL.DDP5.1.DV.MKV.x265-SMURF.torrent ( 15.53 KB )

" g) W8 X% o- P% C' \2 V$ c
$ U9 N& R5 M) z; b' V
登录 发布 快速回复 返回顶部 返回列表