开启辅助访问
 找回密码
 立即注册

一落千丈:波音大调查4k.Downfall.The.Case.Against.Boeing.2022.2160p.NF.WEB-DL.x265.10bit.HDR.DDP5.1-纪录片

#4k记录视频#时间:2023-04-28 阅读:325 回复:0
/ t5 G1 U( e7 m. `2 i; O
5 O+ _1 E7 k+ ~! u7 \

# B8 M/ e8 Z: D3 ]. ? 175732cezeo3522103vibi.jpg.jpg 2 B3 L/ ?2 a  U. O' Y' C

4 @7 J# M: s+ t$ F+ ~) [
9 W* e* a9 w0 D+ ~简       介

- ?- S, r/ k/ r& @+ U! v/ G" a  w$ j8 U# |3 I  t: j
  在《一落千丈:波音大调查》这部令人不寒而栗的纪录片中,曾获奥斯卡提名的电影人罗瑞·肯尼迪揭露了企业对问题的漠视和贪婪如何导致两架波音 MAX 737 飞机在短短五个月内相继失事。在航空专家、新闻记者、前波音职员、美国国会和受害者家属的主导下,这部电影揭开了一家曾经备受推崇的公司背后一味削减成本和掩人耳目的文化。《一落千丈:波音大调查》痛斥来自华尔街的败坏影响,并指出美国企业所秉承的理念的危险之处 — 有时这甚至事关人命。本片由罗瑞·肯尼迪执导和制作,马克·贝利制作和联合编剧,布莱恩·格拉泽和朗·霍华德监制。! X% y; B: W0 `

; d+ o9 k- A; a2 i2 T" _/ [% R: B影片参数
0 V$ v4 L6 C& g' y# M3 g* a! [3 Z+ F3 m" K
一落千丈:波音大调查4k.Downfall.The.Case.Against.Boeing.2022.2160p.NF.WEB-DL.x265.10bit.HDR.DDP5.1-纪录片信息7 U3 r6 c8 \0 j- [
Video" r- r! _" j& q7 t
ID : 1: M. W5 k3 Z. Y& t1 Z) P  _# ~; R: C( L
Format : HEVC
9 [) H7 x- n* _% [. z$ x- d7 GFormat/Info : High Efficiency Video Coding
  Y7 k+ I: c/ N/ {( I' N- [Format profile : Main 10@L5@Main
# w) k8 [& n6 G# O& ]HDR format : Dolby Vision, Version 1.0, dvhe.08.06, BL+RPU, HDR10 compatible / SMPTE ST 2086, HDR10 compatible
: p( H  t' y2 }$ ^Codec ID : V_MPEGH/ISO/HEVC
& v( w! x# C! d. V* |Duration : 1 h 28 min6 o! K# w+ g% C) J% ]0 E
Bit rate : 14.7 Mb/s
( p- ~+ X, E/ E7 t; u- v7 V; R4 [Width : 3 840 pixels
( A: I- `0 {# B, y; P1 jHeight : 2 160 pixels
6 g$ `: ?6 C& F8 N$ ^3 i5 SDisplay aspect ratio : 16:9' A4 q5 J& u* R- N
Frame rate mode : Constant& g7 r1 ~+ C  m' ^
Frame rate : 23.976 (24000/1001) FPS
" n1 Q# p* M& B: |Color space : YUV1 C9 N. x0 a# z4 ]' s- w3 U: p: q% M4 R
Chroma subsampling : 4:2:0 (Type 2)1 r. n' E% O8 r$ @
Bit depth : 10 bits* H: L- \9 y. `  h
Bits/(Pixel*Frame) : 0.0745 S* S7 v' v* W$ H; m
Stream size : 9.13 GiB (96%)
( N0 T  F/ U" V. X/ N6 K+ c+ NLanguage : English/ c2 [' }& F" o  |. B8 n
Default : Yes
) `+ g9 d3 ], e# G0 E2 F7 D( B$ D# XForced : No
$ Y: @8 |* l' Z+ D% V6 \3 n1 m% WColor range : Limited; P5 f% e/ I7 L% q8 z
Color primaries : BT.2020
, u  u" V# v) q7 u3 Q# GTransfer characteristics : PQ
* I/ K: M" ~# x$ e0 tMatrix coefficients : BT.2020 non-constant
* _6 T! g, _1 [+ F: wMastering display color primaries : Display P3
; ~4 i4 c2 |1 qMastering display luminance : min: 0.0001 cd/m2, max: 1000 cd/m27 w7 t( ~# Q) W
Maximum Content Light Level : 1454 cd/m2
! y, f) S1 W; N8 k5 b- y( c. DMaximum Frame-Average Light Level : 133 cd/m22 g. V. o& U8 A7 l: n  _
8 |0 B( ?& n+ B  P% R  i) ]6 T2 ~

; H2 R* K% s$ b; GAudio7 y, ]/ A* W6 T& [) o5 `1 e% R
ID : 2
" \+ U* ~' w" R, w6 J" I: MFormat : E-AC-3& A3 m; H: q1 a) f- T/ r
Format/Info : Enhanced AC-3! i5 s  z: B) T/ q+ Y: |
Commercial name : Dolby Digital Plus
2 Y8 |+ p- L# \" p+ mCodec ID : A_EAC3% O: Q6 T) u$ g+ q& `
Duration : 1 h 30 min
# ?0 c2 D) L& l) XBit rate mode : Constant% v7 A+ K0 {1 f4 S0 l/ _) i
Bit rate : 640 kb/s
9 n8 G3 k, C- |Channel(s) : 6 channels$ |2 N) x- @$ Q4 G+ h3 m
Channel layout : L R C LFE Ls Rs
, k. F, L( M& x% V# S. X! ~4 H! gSampling rate : 48.0 kHz
' n2 ?: F4 y4 \" E* `. q. D, DFrame rate : 31.250 FPS (1536 SPF)2 a1 X0 s! g! o( x
Compression mode : Lossy8 C5 v: t) ?5 ~2 ^
Stream size : 413 MiB (4%)
, T2 F" u6 w! z# P; a* wLanguage : English
, r, S, a0 j( ?8 p7 {! BService kind : Complete Main
& p) X( l. j! [  Q, Y. iDefault : Yes/ v0 B( C- x  H6 E9 z
Forced : No, x4 B( q1 n: v" e8 z4 X
/ r( e) o: \' g6 J

4 h, m$ V% ~( w8 I& BText #32* A& c. Q8 O4 ^2 O* C
ID : 34& l3 X) J+ Q3 W) d
Format : UTF-82 ^: U$ w# E+ u9 s* l8 s- @
Codec ID : S_TEXT/UTF8( K/ h, \) ?; d
Codec ID/Info : UTF-8 Plain Text
! `0 o- J% \* j. Y% X* ]Duration : 1 h 28 min$ i6 {. C7 e% t( T/ c
Bit rate : 118 b/s
0 a# y0 }. ^  O$ l) LFrame rate : 0.256 FPS
) ?9 {+ B$ @8 C3 L) n% s0 YCount of elements : 1360
+ |. ?/ v8 C7 U3 a" [Stream size : 76.6 KiB (0%)) t9 p) G( p' r2 p' I
Language : Vietnamese
( }0 R1 A, Q5 ?. cDefault : No
5 B8 z: R2 B9 r9 L& c1 ~/ g) yForced : No
4 S; V7 i& E3 D6 J4 g) t4 d+ T( L
2 h7 u0 ^- s2 B

" D- y. m3 Q1 T$ J( [0 m6 u' u( DText #33
& H6 T+ k+ G% j; z7 O- W6 uID : 35$ M. l$ G  E" m, Z
Format : UTF-8
" ~$ M7 o4 \. L2 a" k* QCodec ID : S_TEXT/UTF8
2 c  k/ u* h$ J/ uCodec ID/Info : UTF-8 Plain Text
7 i% o5 `# I6 P7 V# h* J, |% PDuration : 1 h 28 min
: w0 u  N$ w0 ^5 b7 w7 [) _Bit rate : 82 b/s
$ @9 F4 S. D" q, {. kFrame rate : 0.252 FPS
+ z, B0 m9 a+ R1 yCount of elements : 1341
. B& q' ?5 A% L9 ^% H2 n. {# wStream size : 53.8 KiB (0%)
( V8 C# F3 ]5 r; h6 t8 u. r8 iTitle : Simplified& _: W8 D* _7 N2 F
Language : Chinese (Simplied)$ y8 A- \& ~; c0 l0 R; `& v% i+ E5 I
Default : No
# [0 Y, O% t+ |6 H1 r, C' |Forced : No" n# F2 [; Y8 A

; e$ o8 C8 u; W$ ^+ S- p/ [
1 W: h) k5 V2 `/ F& ~( V2 ?
Text #34
% K; ]  L- H4 Y9 M2 \2 MID : 368 I5 }" g' ~! W$ _( x
Format : UTF-8! m1 Q+ K3 Y6 b/ o- M$ ~
Codec ID : S_TEXT/UTF86 E0 p! j: Z/ ~1 ^1 \* y
Codec ID/Info : UTF-8 Plain Text  {7 l, F, k0 N! _! v
Duration : 1 h 28 min7 A0 l: I5 r' O. {
Bit rate : 77 b/s
9 z1 s$ L' `4 U; x$ h: k  r1 cFrame rate : 0.255 FPS
6 X; ]1 e% |& f  OCount of elements : 13576 Q' B4 u3 m! l- F
Stream size : 50.3 KiB (0%)
. D  t1 g. q. q; ]( I$ R2 VTitle : Traditional
# `2 \+ p; e1 k/ u- y% gLanguage : Chinese (Traditional)3 @; w1 e+ Z9 e7 d3 `
Default : No
# {# ?; u. {' S2 AForced : No
1 h; g- ^) M0 |5 a% r4 W6 W
3 x- a. D5 G1 T' x) F

" u% [2 K! v  t6 Q+ T7 B6 A2 Q, uMenu
' W* @1 h: m* @8 F9 a01:27:28.000 : en:End Credits

" d- {1 P2 b6 I, G# O' o2 @& K3 B& x. v7 I- d
一落千丈:波音大调查4k.Downfall.The.Case.Against.Boeing.2022.2160p.NF.WEB-DL.x265.10bit.HDR.DDP5.1-纪录片下载! \' H; x! c1 w1 }$ m1 ~( U& r

6 N- U1 d: A7 U/ i8 N一落千丈:波音大调查4k.Downfall.The.Case.Against.Boeing.2022.2160p.NF.WEB-DL.x265.10bit.HDR.DDP5.1-简繁中字【9.53 GB】" v% ?6 i/ Z& G' B( |: C

一落千丈:波音大调查4k.Downfall.The.Case.Against.Boeing.2022.2160p.NF.WEB-DL.x265.10bit.HDR.DDP5.1-SMURF.torrent ( 24.52 KB )

+ o* J2 y9 T: n/ s" ~/ k4 H6 J3 Y
5 x+ g( h. s6 f
一落千丈:波音大调查4k.Downfall.The.Case.Against.Boeing.2022.2160p.NF.WEB-DL.x265.10bit.SDR.DDP5.1-简繁中字【7.70 GB】! [1 o) P3 ^& |/ r: m- B& Z! ^& i

一落千丈:波音大调查4k.Downfall.The.Case.Against.Boeing.2022.2160p.NF.WEB-DL.x265.10bit.SDR.DDP5.1-SMURF.torrent ( 19.93 KB )


1 t" g: z- E7 z+ v; G, y* g! @2 O7 N" g. k, d
一落千丈:波音大调查4k.Downfall.The.Case.Against.Boeing.2022.2160p.NF.WEB-DL.DDP5.1.DV.MP4.x265-简繁中字【杜比视界】【11.88 GB】" K' t/ A& v6 u; s0 A9 X0 ?

一落千丈:波音大调查4k.Downfall.The.Case.Against.Boeing.2022.2160p.NF.WEB-DL.DDP5.1.DV.MP4.x265-DVSUX.torrent ( 15.54 KB )


! W' g4 E( C9 Q7 i
& B  e1 }% j7 @一落千丈:波音大调查4k.Downfall.The.Case.Against.Boeing.2022.2160p.NF.WEB-DL.DDP5.1.DV.MKV.x265-简繁中字【杜比视界】【11.88 GB】6 m/ v+ Z0 S$ ~" D# x

一落千丈:波音大调查4k.Downfall.The.Case.Against.Boeing.2022.2160p.NF.WEB-DL.DDP5.1.DV.MKV.x265-SMURF.torrent ( 15.53 KB )

6 K& W* u4 c) s$ @1 x; H
( x0 p0 n7 X/ d/ [
登录 发布 快速回复 返回顶部 返回列表