开启辅助访问
 找回密码
 立即注册

水下中国 全集.国语.中英字幕.Underwater.China.2019.E01.Web-DL.1080p.H264.AAC 4k纪录片

#4k记录视频#时间:2023-04-28 阅读:377 回复:0
103246h0q0ne60ywd0yx2m.jpg.jpg
1 g& |, }+ k# [- s- ?6 F( E
General" ?2 D/ f, ]# z$ B8 y  i4 h5 \
Format                         : Matroska
% @4 g: }  L  ?( c* l) `Format version                 : Version 4
+ r- v/ J3 q: K9 e, T" ZFile size                      : 1.24 GiB) N1 G" [$ J" c
Duration                       : 34 min 27 s
8 d' `, w5 \- TOverall bit rate               : 5 138 kb/s
1 d1 {) _* L& a& J, SEncoded date                   : UTC 2020-01-16 04:54:45
; f3 }' w4 t+ ]* h2 z* fWriting application            : mkvmerge v11.0.0 (\'Alive\') 64bit4 T5 E3 w* w; C' s* A
Writing library                : libebml v1.3.4 + libmatroska v1.4.5
8 J! |5 S9 B* P1 {. [* L1 }+ P; F0 i: r5 S7 c
+ ^! _! d) c7 C8 G. k. k
Video
+ u" J. D! i. d- @3 F& ?5 k" KID                             : 1: g; G* z5 _; h
Format                         : AVC1 f* a; t7 C0 P7 a6 v
Format/Info                    : Advanced Video Codec
6 Y( D4 [% {' m9 n" E. kFormat profile                 : High@L5.1
2 [6 Y5 Y0 I! m' TFormat settings                : CABAC / 4 Ref Frames8 c% o. g+ ^5 D+ S0 ?  M
Format settings, CABAC         : Yes
# b3 S& U. g& O6 C0 sFormat settings, Reference fra : 4 frames! a, f) E* @4 e1 A
Codec ID                       : V_MPEG4/ISO/AVC' \/ {6 j$ f8 t5 Q# i3 U
Duration                       : 34 min 27 s) `4 Y) _9 n7 c4 n2 a3 |* f
Bit rate                       : 5 012 kb/s
3 J; a2 t3 b# uWidth                          : 3 840 pixels4 s- L! |/ C7 D
Height                         : 2 160 pixels
) K( T, E0 R, ~& ~4 IDisplay aspect ratio           : 16:93 O" s4 U! r; X7 r$ ]/ K
Frame rate mode                : Constant5 ^; r' {: Y# v0 q
Frame rate                     : 25.000 FPS& a/ t- m+ V6 M  j
Color space                    : YUV! r, n* o0 Z* R& g4 `
Chroma subsampling             : 4:2:0
5 z0 ]9 W' L# I' j/ rBit depth                      : 8 bits1 J8 ~0 O' W# Y0 H
Scan type                      : Progressive
- w: ?& j- }$ |! d$ M% wBits/(Pixel*Frame)             : 0.0243 o# p$ g4 h+ E: P2 _" c
Stream size                    : 1.21 GiB (98%)
+ B0 y, u( I; a" w6 bWriting library                : x264 core 148 r2721+46 0c4b09a xiaowan [8-bit@ALL X86]
& g; S* M9 ?  j6 h4 }; K; e6 |' ZEncoding settings              : cabac=1 / ref=4 / deblock=1:1:1 / analyse=0x3:0x133 / me=umh / subme=10 / aq2=0 / aq3=0
" ?2 h/ o0 l; z/ s5 ]Language                       : English
0 l( H/ I, K$ q% ?# hDefault                        : Yes
" S5 z: E, w' V$ AForced                         : No. f9 I4 c+ @1 Z: g
Color range                    : Limited
$ D6 Y1 k1 P4 d1 C: z  C4 |0 CMatrix coefficients            : BT.709
) ]* G# O! `' W  p5 W, G9 O
) ?& J, l- J' p8 a# `- \

( D+ t4 n/ f; p1 N6 o8 |9 J/ z, _Audio0 _3 r3 T" V" V$ W* P+ v
ID                             : 2+ E, j3 p3 T. o8 h
Format                         : AAC LC# E- v! c* s  f; \1 h- @
Format/Info                    : Advanced Audio Codec Low Complexity
/ a; ]! p. L) m9 R' s5 \0 XCodec ID                       : A_AAC-2# i; E9 n/ J$ j/ ]$ M1 N/ a! O8 g
Duration                       : 34 min 27 s
. j4 X: @9 M1 ]- e3 G4 n1 lBit rate                       : 125 kb/s' S) F' q6 ]0 K9 ^6 M5 ~3 r
Channel(s)                     : 2 channels' b5 P/ D4 j0 G
Channel layout                 : L R
1 d; @3 K. A- A. y( |0 kSampling rate                  : 44.1 kHz2 V- F. `+ F& o# T* \5 j1 X
Frame rate                     : 43.066 FPS (1024 SPF)7 }5 a, P+ }, t" O5 O% d
Compression mode               : Lossy" I# a) c  e" t2 M
Stream size                    : 30.7 MiB (2%)) ?2 W6 {0 {! r" @3 w" P8 q
Default                        : Yes& Q9 m5 |, }% S4 o( y6 ^/ b" _
Forced                         : No

* i$ B0 p7 f( V" s水下中国  全集.国语.中英字幕.Underwater.China.2019.E01.Web-DL.1080p.H264.AAC 4k纪录片下载
8 F3 L$ e! E  X# ]0 I& u% X, y
$ u) w7 l/ T# N. @0 U/ g  J! ~

4K 水下中国(中字)(1-6).txt ( 207 Bytes )


# {7 q: c5 d  g. A/ l- N7 f5 \1 M, m5 Q3 w( w

8 u2 q4 X8 P2 f4 h$ U1 \) k4 y! M
登录 发布 快速回复 返回顶部 返回列表