开启辅助访问
 找回密码
 立即注册

恐龙的后代 Modern.Dinosaurs.S01.2160p.WEBRip.AAC2.0.x264-CBFM 4k纪录片

#4k记录视频#时间:2023-04-28 阅读:343 回复:0
104824fbjfzggkbfbyygbh.jpg.jpg + c  {! Z+ {" q8 a, N5 ^
General9 B/ K% U# ?1 `8 Q+ [
Format                         : Matroska
5 ], j- o2 j5 L/ c: Z5 tFormat version                 : Version 4
* @5 b8 p1 R" _* ~4 T. GFile size                      : 7.79 GiB  v. O+ F5 W+ n( k  Z
Duration                       : 44 min 11 s
' |4 j* g7 f, i8 }# sOverall bit rate               : 25.3 Mb/s; w6 @9 w4 a2 r  O6 \7 b
Encoded date                   : UTC 2023-01-16 04:46:29* @4 Q2 `. U% V# _, D
Writing application            : mkvmerge v67.0.0.33 (\'Under Stars\') 64-bit
0 T& {+ c4 F  p8 j* M/ QWriting library                : libebml v1.4.2 + libmatroska v1.6.4
! L5 X! n- v$ o2 m, h- L+ X9 k- J. l& }
0 {9 i  P. M4 x$ @
Video
' D7 z$ x3 E. xID                             : 1
2 t0 r" W' i9 u' lFormat                         : AVC0 t; k7 Z1 I! h; R, ]
Format/Info                    : Advanced Video Codec9 y' Q+ r; e8 d: K9 ?
Format profile                 : Main@L5.1
  K$ h: l& G3 z, ]4 n' P) b! R, sFormat settings                : CABAC / 5 Ref Frames2 l5 E  ~+ h/ l+ K* i) F
Format settings, CABAC         : Yes2 M  B( y1 E, }; I4 z; k, ^
Format settings, Reference fra : 5 frames3 x4 G1 E# @; T8 V7 K) e* R* S
Codec ID                       : V_MPEG4/ISO/AVC
8 X+ Q$ Z8 m' L7 B1 _6 T4 |: z$ lDuration                       : 44 min 11 s
9 k. Q2 v: S1 {Bit rate                       : 25.0 Mb/s
% c" m! ^$ D; HWidth                          : 3 840 pixels
8 C- J: X  N( G- @3 \' c8 THeight                         : 2 160 pixels1 R+ @" j  q# ~/ M/ h
Display aspect ratio           : 16:9
9 I9 w$ J% I5 r% [Frame rate mode                : Constant) Q9 t' D5 G1 i( ^
Frame rate                     : 25.000 FPS% M3 }3 K5 ~0 c7 Z
Color space                    : YUV; h5 j4 b$ v6 P: B( p: Z/ ~+ D, r
Chroma subsampling             : 4:2:0# Q: F% x) @7 P4 G% K; w- d$ t' v
Bit depth                      : 8 bits/ a1 D1 r3 ^$ h5 `( ?) k
Scan type                      : Progressive
* [( f% ?7 e4 M" XBits/(Pixel*Frame)             : 0.121: H* V3 U# a3 J) A6 y; `7 \2 a
Stream size                    : 7.71 GiB (99%)
7 R5 o5 K" ?* P3 E* ~; dDefault                        : Yes& E# D& s- M5 ?" W% `' _, ?& }9 Q
Forced                         : No* P* x$ C& h4 Z- w% {3 x; c$ e
$ B$ B9 {. `7 r" L/ R9 t( ]/ I

! u' t& u4 S, F) Q. \9 l* l: D" zAudio
- ~  B) ]8 V! j' p! g1 vID                             : 2" U- e2 o/ J# n1 J
Format                         : AAC LC
& X/ R9 U" D' {3 uFormat/Info                    : Advanced Audio Codec Low Complexity
- f! ?$ j7 ~/ _- _, K! CCodec ID                       : A_AAC-21 B% @( i6 A7 J. F4 \
Duration                       : 44 min 11 s
; o! Z, \) j) s9 \Bit rate                       : 253 kb/s
: j3 ?! ?9 g8 {1 ZChannel(s)                     : 2 channels
1 I$ G) t3 H9 U. A$ P; A  n9 F$ oChannel layout                 : L R
: V8 J: J6 p. L2 |8 ySampling rate                  : 48.0 kHz
( \% [9 R! L- _7 ?Frame rate                     : 46.875 FPS (1024 SPF)
9 J0 B& h* h2 Q8 k# A; l* uCompression mode               : Lossy: l; {, ?3 E4 n
Stream size                    : 80.1 MiB (1%)
8 K. n' w1 M9 q2 xLanguage                       : English
0 i: }+ l/ S. SDefault                        : Yes
! K) ~' Y, w! cForced                         : No+ W( F9 t: B; [; b

6 E7 B/ u$ S8 v! D' I3 `
5 S- ]3 o" E% u3 s+ M
Text
3 n7 ~. _0 |' u5 [& C! HID                             : 3
2 m  [: {/ [* G6 T' }8 _; F7 ?/ |Format                         : UTF-8
" T/ p4 ^" h  K: hCodec ID                       : S_TEXT/UTF8
8 s* H' t8 q" G/ t& C# rCodec ID/Info                  : UTF-8 Plain Text
5 W3 h, ?* A6 ~; j. c3 i3 N( ?& JDuration                       : 44 min 6 s- D& u, g5 o9 e9 G( l# \) J
Bit rate                       : 87 b/s  Q2 I( G1 @; R9 d
Frame rate                     : 0.287 FPS; g7 [- P* ^! ^7 F! _) }+ Z- _
Count of elements              : 7594 \" `' x8 A" l) P0 I8 F
Stream size                    : 28.2 KiB (0%)& f8 k3 Q8 y- v' ~# c" O
Language                       : English
" X+ ]3 y. j% L8 o* m) TDefault                        : No/ T- b6 W: G8 g  T. N$ u
Forced                         : No

& j  g* e* K) X4 B) G) R

4K 恐龙的后代(1-6)(英...0p.WEBRip.AAC2.0.x264-CBFM[rartv].txt ( 232 Bytes )

+ ^; J3 V9 o. f# t, e" l; e- c1 ^
5 L% }7 U1 z1 G# k& ^1 r! p4 s

, W( ?3 ?' p6 s3 r9 x0 b
) |' {' ]; m7 t  s0 [: f4 Q* o0 k
登录 发布 快速回复 返回顶部 返回列表