开启辅助访问
 找回密码
 立即注册

贝尔蒂·格雷戈里的壮观大冒险(中字1-5)(25G)Epic.Adventures.with.Bertie.Gregory.S01.2160p.DSNP.WEB-DL.x265.10bit.HDR.DDP5.1-KOGi[rartv] 4k纪录片

#4k记录视频#时间:2023-04-28 阅读:252 回复:0
124145fvrzbb3cvtzbioob.jpg.jpg
7 v* u) W2 K" j# XGeneral, X2 K' C5 j1 ~3 }. F, j5 Z
Format                         : Matroska
. ~3 t: `/ m( L) {$ D& u8 F7 R0 qFormat version                 : Version 49 B" Z% g  \: a
File size                      : 4.90 GiB
; D% Q9 m, B' L# n- M$ h/ \Duration                       : 42 min 20 s- h9 |/ A& H7 @+ s  _/ e
Overall bit rate               : 16.6 Mb/s
' K: V: C9 e& G, {% @Writing application            : mkvmerge v67.0.0 (\'Under Stars\') 64-bit: M$ ?; H" C9 Z3 s& c
Writing library                : libebml v1.4.2 + libmatroska v1.6.4
- u) \' D* s8 }9 q. G- F: [( V2 V' n8 S
' i8 k1 ]! Q1 j  Y* F+ r8 X) _
Video
; W: q4 |9 _* ~$ mID                             : 1% D, l" L" Z0 M& y2 t+ w# y
Format                         : HEVC: J% X" W5 T* H0 ]: F
Format/Info                    : High Efficiency Video Coding3 B, Y3 {4 |3 x! Z- c+ @' L0 x' p
Format profile                 : Main 10@L5@High
* Q& H% O# h/ tHDR format                     : SMPTE ST 2086, HDR10 compatible& W. \. A" a9 U. h& H8 W
Codec ID                       : V_MPEGH/ISO/HEVC
! j1 K/ g* K) R/ xDuration                       : 42 min 20 s
8 `* S7 O, |0 L- C2 m; jBit rate                       : 16.3 Mb/s& u& _( Z& n5 ^' n+ m$ B" p: O
Width                          : 3 840 pixels
' W8 E5 G+ a, Q7 u: g1 B- O) RHeight                         : 2 160 pixels3 B6 e% z& o# @1 I
Display aspect ratio           : 16:9  b3 [4 Z9 t% @2 v; R
Frame rate mode                : Constant6 ^+ w; J( `* ^: P) b
Frame rate                     : 23.976 (24000/1001) FPS
' @% J$ ~2 d, _Color space                    : YUV
5 I1 Y/ Z) K: f2 g+ t6 U1 FChroma subsampling             : 4:2:0/ f& @% [& q- W1 a0 E
Bit depth                      : 10 bits* B; u- ?; ?0 a, ?5 v6 |
Bits/(Pixel*Frame)             : 0.082* l" n  C3 \3 e4 t$ t( U6 `! y
Stream size                    : 4.83 GiB (98%)* `: ]7 {/ x1 [- u" u( w
Language                       : English$ Y2 p5 T. L* Y' _, v! X% R! N
Default                        : Yes6 E7 h1 J+ s* q/ O' g0 c" K' x6 G
Forced                         : No) \3 `/ g6 ~6 G/ Z4 f9 y. `! W
Color range                    : Limited
* M! N% Q4 @) m! g) D/ ^( [1 wColor primaries                : BT.2020" y( Y' U9 r6 `# z' Z
Transfer characteristics       : PQ
7 B+ D5 _, I' w/ [5 F5 Y: g/ mMatrix coefficients            : BT.2020 non-constant+ E# n" W: i) N; ~7 L
Mastering display color primar : Display P39 b' N. K! X8 \+ F
Mastering display luminance    : min: 0.0010 cd/m2, max: 1000 cd/m2
1 g5 S5 G4 i) s, l3 U% m& _: z0 [: y+ D1 `( N5 a3 v
; S  x* ~; X1 X0 S
Audio
4 @/ l6 d+ G$ i$ }& Q4 @+ E4 W( wID                             : 2( h, M' s) _7 k  A4 ^
Format                         : E-AC-34 O* E9 K& u+ x
Format/Info                    : Enhanced AC-36 p. c1 ]4 U; l* m/ g) k) Q- c4 |3 W
Commercial name                : Dolby Digital Plus
6 T! c. ~  O, D5 e% \4 iCodec ID                       : A_EAC38 w! ?6 G  j4 W4 {
Duration                       : 42 min 20 s
* \- g0 \- {9 s: E) i1 z5 KBit rate mode                  : Constant; h2 w% S" ?5 x8 `8 a
Bit rate                       : 256 kb/s
' c* V8 T3 A! |, ]9 k. _Channel(s)                     : 6 channels
3 d3 Q: K# `, M  pChannel layout                 : L R C LFE Ls Rs
) l. Z7 J$ B) L, S( e. I" DSampling rate                  : 48.0 kHz  d, w5 X% E2 p7 H
Frame rate                     : 31.250 FPS (1536 SPF)3 A  p5 t4 b( D6 v% O8 x- p
Compression mode               : Lossy
+ }7 ^0 ]/ b" ~, R& w3 ^. PStream size                    : 77.5 MiB (2%)
; \1 L1 K8 V7 `  [( ]$ R: L  X: pLanguage                       : English
. c- Y' z' Y/ o  ~0 gService kind                   : Complete Main
; I7 c6 x9 ?. X0 n' fDefault                        : Yes$ l9 V1 ?1 j2 W' \
Forced                         : No" I8 D4 F! }! N, ^' g. j; n

- v0 w# S) m, ?( R$ W: O" s; v
: S7 Z! [4 b$ b, u: g8 `
Text #1- t* E8 `9 L0 A, A/ w/ T" `3 a
ID                             : 3
% f* C. c* T3 m8 uFormat                         : UTF-8
, v% s( I( l1 A+ ~+ V* \/ tCodec ID                       : S_TEXT/UTF89 t7 l- L, \; Z+ x
Codec ID/Info                  : UTF-8 Plain Text% v* U6 ^8 r, V" Y- Z. j
Duration                       : 42 min 6 s7 H+ y0 ?$ |3 s0 {: A9 |; Q5 f
Bit rate                       : 76 b/s
0 S, P4 N0 D' N/ |8 jFrame rate                     : 0.214 FPS
+ l; _) j/ ]! m! I" wCount of elements              : 540" o  B+ y) {/ V# c+ k
Stream size                    : 23.4 KiB (0%)7 ^9 K" E* Y4 B1 C; l( g
Title                          : English (SDH)% D; u& s6 H9 ~# A0 M, l7 [: ^
Language                       : English0 s, K! m. V6 d3 e" @, n
Default                        : No* D) z' N6 C% g9 x* p
Forced                         : No
5 F' X9 M8 `# w3 J. o* |2 r% w+ {" D4 O% ~" p3 T
6 i* W& q( W0 q$ C) {
Text #2
4 P& E- L2 J7 u4 X4 @8 z3 s; R; NID                             : 4
* S- C+ Q8 j' e2 K! T; OFormat                         : UTF-8
2 X3 r, f. @* C7 xCodec ID                       : S_TEXT/UTF8
0 Z+ x: }/ v4 A; p3 |3 XCodec ID/Info                  : UTF-8 Plain Text0 {; U2 d+ |6 s2 S
Duration                       : 42 min 6 s
/ @3 ^, Z, j8 TBit rate                       : 70 b/s( P# e7 _& I0 N* j# v8 w
Frame rate                     : 0.182 FPS
! R  @: b- @# U& Y+ S; Y& qCount of elements              : 459
* V1 v/ ?. ?$ X$ @4 KStream size                    : 21.8 KiB (0%)3 [; ]- j9 H& F9 n
Title                          : Čeština% n. ]' `7 G' j' k- ?+ ]
Language                       : Czech
- Y5 U0 p( w* s" k4 a2 HDefault                        : No8 c& V1 {; G% h6 R7 J+ O
Forced                         : No
1 G+ \4 l5 W- e; N$ `
. o, P* E0 j, d' J$ E3 w

5 d: [3 ]! @4 C- Z% X9 T+ jText #3
  e* i# N: U6 F( [; S5 CID                             : 5
6 t6 k+ O! C9 Y$ t5 M6 R' iFormat                         : UTF-8. @. \1 |2 ^9 T7 o3 d' d
Codec ID                       : S_TEXT/UTF83 i  a. s8 ^) |7 x  |
Codec ID/Info                  : UTF-8 Plain Text+ ]/ _0 G) l; `8 L! l1 k8 Z' W, Y
Duration                       : 42 min 6 s
/ g& k: t6 s: S# a  h1 \' cBit rate                       : 67 b/s2 E# s2 ~& B0 D2 w8 g" V3 j) h
Frame rate                     : 0.182 FPS
: \( o$ u% p% NCount of elements              : 4599 I9 B8 i2 M8 L" ^4 }9 c* s
Stream size                    : 20.7 KiB (0%)% v! r: k" I& S3 s
Title                          : Dansk" d# n: `: w( V' ?( N0 U
Language                       : Danish( K3 X0 k( n, J0 }
Default                        : No- ~+ b) V1 N5 @8 G3 X
Forced                         : No
/ v/ p5 y8 [4 n) F. u) @, `$ S& a8 P6 {( c4 {

" ?2 L5 p4 W& N' w9 _Text #43 r3 F2 V# s: f/ F% V" d
ID                             : 60 \' k, o! I- |, n- Y5 l/ w
Format                         : UTF-8
& G9 E& z/ \/ y. mCodec ID                       : S_TEXT/UTF8! P2 }( R0 W: F
Codec ID/Info                  : UTF-8 Plain Text  u; k' E) g* d. |8 c7 m
Duration                       : 42 min 6 s
& o$ t5 g3 C% i$ H" YBit rate                       : 71 b/s
( c3 ]- o3 e& F! d+ J+ v3 I) J- gFrame rate                     : 0.181 FPS
, P6 f7 o, P: P' DCount of elements              : 4586 n& m4 h! c- B$ Q4 k2 r
Stream size                    : 22.0 KiB (0%)
: w1 b: Z8 ~, z5 ?" V% HTitle                          : Deutsch
& V- A0 o- q  @7 V& F3 xLanguage                       : German: d: f3 L# z/ z& n
Default                        : No" ~" C3 Y. N* W; Y' |
Forced                         : No
  j9 L( x1 M, `7 I* e
1 n5 |% b' s2 F/ T

& w9 S: h, \# h  j, HText #5
( I% J8 Y2 I- C! E. f  V/ J: |  o. I8 uID                             : 7
% Q; }# P# e. m6 ~Format                         : UTF-8
; S5 `$ ]6 x6 |/ k! S5 U! O7 u) GCodec ID                       : S_TEXT/UTF8
  P* S& [8 V: C1 I* QCodec ID/Info                  : UTF-8 Plain Text, n1 u  `  r4 e; X9 k
Duration                       : 42 min 6 s# g/ y( h( O% J) ^) Q  L: ^
Bit rate                       : 122 b/s1 V. B3 t# D# o! s1 @5 g
Frame rate                     : 0.182 FPS& p/ L) @1 w2 ^0 W  T# |- M
Count of elements              : 459
  C) I3 f( W( b6 }Stream size                    : 37.7 KiB (0%)
8 B# @! S) D6 S7 f  u% pTitle                          : Greek
( @3 h2 g6 l& o3 c' I1 h4 _' HLanguage                       : Greek) ?5 i; D8 G3 ]# Q; b6 F4 o* e
Default                        : No' ], E1 a( X9 e, y
Forced                         : No
0 L  O) u* L2 j4 y
  c5 Z0 j) F: H2 Z: O2 C+ c

" r4 D( _3 u  ]; }" S9 A2 e/ ^Text #62 a. g& ~) K; B3 |6 |6 v
ID                             : 8
" o' f" R. R& Z% P4 s, \+ _5 gFormat                         : UTF-8/ l+ p( }; y1 \
Codec ID                       : S_TEXT/UTF8: y$ o5 D6 A9 }, u4 c
Codec ID/Info                  : UTF-8 Plain Text$ F5 {- v, z- `9 |
Duration                       : 42 min 6 s
$ G( o- {2 l2 Q! ^; R; aBit rate                       : 75 b/s
; h; U- s( z( Z' U3 i  a6 SFrame rate                     : 0.189 FPS$ l$ G+ C+ z9 `( v5 l
Count of elements              : 477
1 u9 R' p7 z" w# tStream size                    : 23.4 KiB (0%)
, z# T9 {+ J0 J  j" F# dTitle                          : Español (Latinoamericano)- i2 X) f" s' H3 o; }
Language                       : Spanish1 U& a; z1 S+ ~, E7 _3 @% y8 Q8 g
Default                        : No
# B4 T$ z& O) `, R  HForced                         : No
+ N, a; c/ t: t, m2 v, n7 t. }% F2 @! N  d5 j- A  Q0 N2 `
0 Y# T4 Q% @0 F! i
Text #7
5 G; d. A/ g6 Y' RID                             : 9
( U$ ~1 O) o8 b8 F( U' BFormat                         : UTF-8
0 f, f8 m! ]5 R$ J. @* ECodec ID                       : S_TEXT/UTF8
! M0 G" ?' v+ B; ~' F# f; }  |Codec ID/Info                  : UTF-8 Plain Text
$ T/ H) I# t  E( tDuration                       : 42 min 6 s
6 s8 J% R" N' e' EBit rate                       : 69 b/s
% H% ?. D4 q+ d! O4 tFrame rate                     : 0.182 FPS  B, ~2 W, P" K+ ?- L
Count of elements              : 461. _) p: s$ l# H7 E# [
Stream size                    : 21.4 KiB (0%)# E; k4 ^- t1 s* \& l
Title                          : Español
1 F! m$ ]0 o& u+ x; wLanguage                       : Spanish
3 B) n. K1 V6 Y- h! Q7 p: p1 ?8 iDefault                        : No; `% @. {2 ~) e. w# ^2 ]
Forced                         : No' t$ {! @% s" Q& I7 J$ p, Y
9 _* f* E; N2 B% G$ h& \

, W# R8 h( A# V' V6 EText #8
! _& w4 y9 g0 M& {, t7 EID                             : 10' {5 ^. [& Y6 ~/ `, C
Format                         : UTF-86 D* L! u* T! d
Codec ID                       : S_TEXT/UTF8
; x4 f& ~$ X, D5 A8 GCodec ID/Info                  : UTF-8 Plain Text" y" e( W- u0 S7 J7 z# P
Duration                       : 42 min 6 s
' U/ @4 a( S- ^' r) R8 t# fBit rate                       : 67 b/s1 S8 `9 J; `& h6 D" |' U5 A1 E
Frame rate                     : 0.182 FPS
, D, b0 A$ o' FCount of elements              : 459& ^6 V5 L5 K- U7 q; Z2 J
Stream size                    : 20.9 KiB (0%); U/ e! E  o# I# l5 q- ~# M' Z
Title                          : Suomi2 v4 I$ D! h* X4 d0 Y' F
Language                       : Finnish2 F  u/ [& r$ A& u  {6 j
Default                        : No
1 K# L. b" R& l) O1 y7 oForced                         : No
( W4 j% u; L8 b$ n" ]- u  Z3 B) m5 ?% k, }& w6 _* L7 s; e5 y

' @- _' \0 i6 |+ tText #9
) K) j3 K$ v% R" N* w" w, f7 oID                             : 11: _  e% L& e0 b+ ^5 ^4 Y! o2 m8 R" [
Format                         : UTF-89 ]0 K* ?) `7 ^4 a
Codec ID                       : S_TEXT/UTF8
/ P& Y8 L+ \+ dCodec ID/Info                  : UTF-8 Plain Text9 w! I1 F- x3 G1 P+ b) e
Duration                       : 42 min 6 s
/ r" _+ A# k  U7 \0 TBit rate                       : 73 b/s
* j, G: T# U3 P9 b8 a& S/ V) a  \! y3 JFrame rate                     : 0.191 FPS: C* x7 n, n  f/ j- p* C3 d2 G
Count of elements              : 483
8 a- r4 |% r; G) X- G" v. ~Stream size                    : 22.6 KiB (0%)
1 T7 C! L( i, ~# F" l+ ~: o  VTitle                          : Français
5 D# [3 Y5 n3 F3 v8 ZLanguage                       : French
) n' w+ O1 N- g# X! f8 QDefault                        : No" H5 I( \. {+ e" C7 C" G
Forced                         : No0 M; n& A! a! o& U1 T' ^9 V

, D- d& R+ ^/ n6 G$ M
* B" Y* a4 t1 W5 N4 ^8 q: C" B
Text #10+ J- D* y8 l- D
ID                             : 124 i8 g5 i4 }0 O) L
Format                         : UTF-8
; U8 w& d) ^7 F4 W6 x8 O! LCodec ID                       : S_TEXT/UTF8
) |- M, B2 [  n% x8 g1 R% nCodec ID/Info                  : UTF-8 Plain Text9 f; j# @6 m0 E2 r
Duration                       : 42 min 6 s3 i3 g9 J5 r$ }' x
Bit rate                       : 71 b/s+ t5 r* y- z& X; N# ~
Frame rate                     : 0.182 FPS
3 s/ ^. w7 T6 c! ^% T/ L* t8 k! JCount of elements              : 461$ W) K* A# ~) g0 S$ b2 h
Stream size                    : 22.1 KiB (0%)
3 {" o6 j6 o% @; w1 f6 V- R$ q8 _Title                          : Magyar+ e7 S4 E4 ]2 n
Language                       : Hungarian
, g+ M; L) w0 ^- [1 d( \Default                        : No
; Z0 k% J0 U! d: J0 }, S  ?1 UForced                         : No
% Q& y# B  S9 _. A) s# a' U
" M8 d# W0 r3 u8 b1 K, ~

, P2 |0 e  r1 BText #11, O5 @$ r1 A% y# Z: o( v, g1 u
ID                             : 13
2 C! M0 _/ I7 P; s0 F/ ]Format                         : UTF-8" _5 Y& ~+ G9 ~9 Y2 V
Codec ID                       : S_TEXT/UTF8* D% \/ k/ T; G* A7 S9 q* {$ m2 _
Codec ID/Info                  : UTF-8 Plain Text  @$ f4 N* a/ Z7 S2 |
Duration                       : 42 min 6 s' r2 Q8 ?, C+ [+ n4 G9 \+ n' j
Bit rate                       : 74 b/s/ H9 K6 p9 ~, g, a# A
Frame rate                     : 0.182 FPS
6 i* m. r4 `: q% `6 s: fCount of elements              : 460
# H5 y- e8 g& L+ aStream size                    : 22.9 KiB (0%)- J/ R- C( `/ c
Title                          : Italiano
, ^2 d/ c" O+ f; |; f4 q9 LLanguage                       : Italian
+ Q) x4 f4 d3 \4 a# |7 o8 BDefault                        : No+ s1 p. u/ _" _
Forced                         : No
* S: k& {6 S/ I: y* @
7 J+ z7 g+ ^% I7 E: e9 c
7 n* D/ d6 g( H2 s) {5 _
Text #12
( x" w6 ^6 J/ G) ?# {1 p8 p4 lID                             : 143 j5 {& p! e  T! q
Format                         : UTF-8. J8 I5 h; }- O0 g4 X% {
Codec ID                       : S_TEXT/UTF88 M- K  o: p6 C2 E  O9 m$ I0 v5 l
Codec ID/Info                  : UTF-8 Plain Text4 F" Q7 O+ o& k3 B
Duration                       : 42 min 6 s
5 E0 t! D% q. t6 RBit rate                       : 61 b/s
0 C% I' h2 B0 a% d! `. w% e2 p9 t# ^Frame rate                     : 0.172 FPS  P; u$ Y0 A: O& }; l
Count of elements              : 435
  A, Y4 I+ U% R$ ]: VStream size                    : 18.9 KiB (0%)0 S; _$ l6 Y5 W( i. I
Title                          : Japanese
5 v! s+ l9 |# A# d! @Language                       : Japanese2 L) u/ Y3 `/ R& n$ F9 X
Default                        : No& Y$ T2 T! I: k2 X
Forced                         : No% {0 W. ?# H5 |: e3 r) d7 H8 |
4 a2 u2 `9 m/ z) ]

, M: ~) T* C( |. O* b: h+ A+ ?Text #13
" {4 [' e. N0 X5 m5 _$ PID                             : 15% L5 }% @$ Z1 @! |. h, L" H9 X
Format                         : UTF-8: A- R2 u8 _) r
Codec ID                       : S_TEXT/UTF8
4 o; ]% S1 I+ W0 Z7 m0 h) SCodec ID/Info                  : UTF-8 Plain Text
! o' n8 P; h- Q4 S+ |Duration                       : 42 min 6 s
: j* o2 v& P* IBit rate                       : 75 b/s7 e% Y5 J+ }1 J. _/ ?8 g
Frame rate                     : 0.186 FPS
$ p6 W( ~- W& q3 Q1 e- nCount of elements              : 470' D7 G/ Q; d* g# H  h
Stream size                    : 23.4 KiB (0%)+ @0 e2 y; J1 J& `
Title                          : Korean, c9 r1 Z0 \$ N- {' n$ ]
Language                       : Korean! z, C3 o% \2 w9 K( s5 v7 N
Default                        : No! X) ]" M, T. p0 U3 u
Forced                         : No6 D$ S( A3 }' ?$ v% j; x1 e* Y

& g+ W. |8 |" {* c. p; J) E; {

6 r, n9 j# E5 r+ n6 B% \% J) ]9 i- ~Text #145 e. {0 c- e2 n- \9 [
ID                             : 16/ |2 S( ~  P+ O1 G1 |# A( e
Format                         : UTF-8& _7 [. ^9 K4 x' |/ T
Codec ID                       : S_TEXT/UTF8- M; V% L( ~& `- _) E4 j8 ]
Codec ID/Info                  : UTF-8 Plain Text  D: G- m7 x" X0 [; W% a3 l
Duration                       : 42 min 6 s
1 f3 V$ x4 Y. CBit rate                       : 61 b/s
. p  t2 x. h/ kFrame rate                     : 0.157 FPS& @9 k3 W# }! Y, D) T
Count of elements              : 397" A2 T2 L& P9 \1 n
Stream size                    : 19.0 KiB (0%)4 I0 _% l# f" E( T
Title                          : Nederlands' t/ l+ e" Z4 e8 I0 @4 c! V: @' c6 k
Language                       : Dutch
$ \2 Q7 @% E; ]3 bDefault                        : No: }9 j1 B3 {: D& s
Forced                         : No8 D3 t! Y+ r0 ]: j
% |' u- y  X, C% `( L. {+ s' ], J
, T! }7 x& [4 v, b2 N+ L
Text #15
3 a, C% v% V- A: ]ID                             : 174 h/ v2 l- I+ O. z  K
Format                         : UTF-8* B. J4 ]1 a$ @$ X  K
Codec ID                       : S_TEXT/UTF8+ w8 F- S2 e7 ^) t' \
Codec ID/Info                  : UTF-8 Plain Text) \; M6 O8 q! h- a
Duration                       : 42 min 6 s
4 U* s) d- ^! i9 O1 F4 ]7 PBit rate                       : 64 b/s
& O- z; ~$ J, y* w3 uFrame rate                     : 0.176 FPS- C' \/ m2 f1 }6 A5 l* }
Count of elements              : 444
( U8 _( X3 S0 T$ W. e! jStream size                    : 19.9 KiB (0%)
$ @6 t1 h2 h" A: uTitle                          : Norsk
' J( V2 H3 Z; t, s( sLanguage                       : Norwegian& K3 K' J  S' Y* ^
Default                        : No* m& Q2 v+ b  T8 A! G2 q/ f( b
Forced                         : No
- o) l% L7 a$ a1 G3 m' y
+ h" y& P3 v8 M! z6 _
" O* |$ l4 D  n
Text #16' O- t2 k4 u" k3 w
ID                             : 18' P/ Y# v" a. H! X
Format                         : UTF-8
4 v: `1 @- S3 U5 |$ v! ~Codec ID                       : S_TEXT/UTF8
% ]5 n% P1 v. T: ]( E, n$ {/ h) {Codec ID/Info                  : UTF-8 Plain Text. \, S6 m8 r7 L( r% P! J9 a
Duration                       : 42 min 6 s
5 n# t; ^% y- a0 N7 i, e% _Bit rate                       : 63 b/s
  f, R9 W4 Z6 C. h3 T# m/ FFrame rate                     : 0.181 FPS8 B# I7 U) b5 k( T
Count of elements              : 457
8 c+ p" g7 ?1 X# ~8 i0 y1 Q/ V% lStream size                    : 19.7 KiB (0%)
# ^" O. I+ s, S: \Title                          : Polski  ?' v- Z( z1 H& X! L0 D5 `
Language                       : Polish$ s; p, a) n* E& d3 \* K
Default                        : No
, G3 P' j6 b) RForced                         : No
# e/ ]' C+ W: a' S2 X$ X
6 Q. o/ m* G& I, P7 {& t
" Y1 _" e; S* C3 D( Z) a  m* n
Text #176 m. G$ M) d+ H/ l+ A" i
ID                             : 19
7 R* ~+ S) |# W; Y  Z9 nFormat                         : UTF-8
2 X$ H& p6 v$ N4 `+ A+ zCodec ID                       : S_TEXT/UTF8( T5 x( a3 `# y' f; Q
Codec ID/Info                  : UTF-8 Plain Text; J6 U6 y& v& m
Duration                       : 42 min 6 s8 U$ f) D( j. Q7 Z
Bit rate                       : 70 b/s* P: T4 L* o6 S2 t0 k4 _2 ]
Frame rate                     : 0.187 FPS$ T8 \) Y* n; S' [% ~
Count of elements              : 473- ~/ W' x0 y) B, V8 L1 r- @8 P6 c7 N: K7 a
Stream size                    : 21.8 KiB (0%)$ W# y8 d, h& ^1 b7 y7 i
Title                          : Português
6 m/ Z1 N  a: u0 V5 ULanguage                       : Portuguese; o+ S1 X( S% z
Default                        : No
7 Y$ B4 Y1 w7 k" vForced                         : No8 J7 T2 k; |) V0 j' }
+ V% K8 U+ y$ L% |& x
. j) P* n* M! Q! _
Text #18; F- ~% {' \5 y: y* U% d& n
ID                             : 200 S2 |) O0 h3 ]2 m
Format                         : UTF-86 i; U& I1 ~+ b. t- Z" v
Codec ID                       : S_TEXT/UTF8
: @( I' I3 j7 t+ q9 @Codec ID/Info                  : UTF-8 Plain Text& B7 W  X2 a; B: k
Duration                       : 42 min 6 s. B6 L+ @+ b: [) F) ~
Bit rate                       : 72 b/s- H2 `  k  ]; W2 F4 C0 B6 X
Frame rate                     : 0.182 FPS& z9 c% s9 n1 ]% H
Count of elements              : 461, G6 l) |7 |- ]0 {. S
Stream size                    : 22.2 KiB (0%)
) ?8 y; `4 D; O3 t3 p' C6 LTitle                          : Português (Brasil)& Z$ v( W7 P. _8 x/ N
Language                       : Portuguese
1 }. l: z0 V/ K% A% d  y( k4 iDefault                        : No0 y. W/ ~6 L5 P7 ^3 F- ^. e$ T
Forced                         : No" {+ [, |, b3 P) O5 T

! n" J* y7 q! `( @; l* Y5 u

# m! J9 V# b! J3 @- J" VText #19, r2 z4 s$ f' S5 A' ~
ID                             : 21% F# S# l. E0 O6 G4 K
Format                         : UTF-8
* |" c, Q$ d' N# KCodec ID                       : S_TEXT/UTF8
0 p, O4 q! ^- hCodec ID/Info                  : UTF-8 Plain Text3 H% z# N0 Z/ e2 x7 W4 A" Y
Duration                       : 42 min 6 s- u( J# l3 t$ @) V- Y0 a/ D
Bit rate                       : 72 b/s
* _: H& f9 }$ D: j. MFrame rate                     : 0.182 FPS6 b+ [" ~; ~$ m) v- E; r: L- W( V, r
Count of elements              : 460! V, o5 z/ _+ l7 L% x  H
Stream size                    : 22.5 KiB (0%)  ]0 o, B6 A9 p+ g! O2 W
Title                          : Romană
0 M5 j- [0 h( ~. dLanguage                       : Romanian) z# @; \# \. C
Default                        : No
$ G7 m/ P. p. a3 j. xForced                         : No
' ]% D, W2 M) _$ Z3 k1 S4 B
/ w) \; m. A: W; i. B/ w
* p' f: ]" W/ O* {
Text #20
1 j3 o, S: z' [' G' C" @6 I; ?* f" Z0 MID                             : 22
* j5 x0 a7 D9 T; c( `Format                         : UTF-8  Q) y7 F& }6 ~" F3 J3 B: d4 |
Codec ID                       : S_TEXT/UTF85 \0 L: r% k& P# S; i
Codec ID/Info                  : UTF-8 Plain Text, G" U& l1 y6 W/ c1 X3 y
Duration                       : 42 min 6 s8 X1 p% y% B6 P4 b; h
Bit rate                       : 67 b/s% j" S" D' }# I$ D4 G- H. R
Frame rate                     : 0.182 FPS1 Y8 j" G: O8 A- I* w. t: {9 r8 g4 P
Count of elements              : 4604 R$ A8 q3 `8 w0 ^
Stream size                    : 20.7 KiB (0%)1 U* R4 ?+ U& v6 r$ t; j3 l8 }
Title                          : Slovenčina+ h- V/ N4 k) L$ `' Q
Language                       : Slovak
. U3 F8 s1 N& F+ U5 _Default                        : No5 d' ?9 j+ E; p* m- F! [
Forced                         : No/ R* Q: z$ v4 w* O8 s3 j2 {3 A8 ^/ P
5 ^. j0 t5 b% V5 C- ~9 N6 r

! u7 S9 o$ ~+ F$ AText #213 y% R* C9 y5 {4 F0 P: n. F
ID                             : 239 p/ \) y- B+ e; Z" F; d
Format                         : UTF-8& h2 C9 }% Y9 q  n1 j
Codec ID                       : S_TEXT/UTF8' E: X! g* B: w0 E+ [1 i5 E
Codec ID/Info                  : UTF-8 Plain Text
) P2 @* |7 f  v+ l: m: A; x9 LDuration                       : 42 min 6 s% C! X( G9 b, k& z' `
Bit rate                       : 71 b/s
; K1 B5 T* `3 G, ?9 WFrame rate                     : 0.177 FPS- o3 O8 g0 \$ Y; i- t7 }
Count of elements              : 4464 r- i2 F' e0 g0 g
Stream size                    : 21.9 KiB (0%)( Q! b6 A9 O* H8 N7 m& u# W1 ?
Title                          : Svenska
; w* Q" x$ P) g8 qLanguage                       : Swedish" ~- ?4 l9 G. V
Default                        : No
' W4 X6 c  Q) L1 |Forced                         : No
) S% d1 n7 C  t) f
8 w5 G: X& h" j; h/ @7 @$ z4 s
6 k+ x4 N2 x+ O, Z  j  S& X
Text #22
8 H* I0 t6 W: t1 s3 a( A. J3 s% pID                             : 24
2 i6 P5 @2 h$ s8 H4 _6 hFormat                         : UTF-8
1 i8 u6 k' y. {Codec ID                       : S_TEXT/UTF8
6 Z* ~0 J: h. ?. u, b) o7 a' X! ZCodec ID/Info                  : UTF-8 Plain Text: K6 i5 }, ^. w4 }2 X6 i
Duration                       : 42 min 6 s
0 I% p( y% f; g- l7 \Bit rate                       : 74 b/s% n& F( |" _5 O: o1 Y
Frame rate                     : 0.188 FPS
$ a- s. |8 E  g0 F, K( G: T# sCount of elements              : 474, C9 x9 f; s/ @& d, `
Stream size                    : 23.0 KiB (0%)
) ~- I5 B+ ^# A+ Z- ^. o! Y9 KTitle                          : Türkçe
. O, D; F: I2 ^3 T+ r9 XLanguage                       : Turkish
2 [  Z3 }( ~; W# `Default                        : No* S$ d5 {) g# [# V' x* }4 Q
Forced                         : No. w9 n% Y% k& u) ]$ a, F

: x1 x0 f+ I: [8 H* R
$ D8 X$ `) c8 w# o) @% [
Text #23
2 {+ t5 ^# ]- {. OID                             : 25# {! M0 Z, I. j/ p, j- B/ j7 ?
Format                         : UTF-8) s' m0 C& h" W$ }+ Y# N
Codec ID                       : S_TEXT/UTF88 k9 F  h+ A4 p2 H
Codec ID/Info                  : UTF-8 Plain Text" y' W# Z- f  N' e. Y
Duration                       : 42 min 6 s
" A+ o# o5 q6 M* ?$ X7 _Bit rate                       : 51 b/s) i0 n5 m0 a( p& r
Frame rate                     : 0.182 FPS' }! B* X: `7 Y" _, r
Count of elements              : 461
1 r- \* C! r" _6 u2 w5 E8 f% GStream size                    : 15.8 KiB (0%)
: T- c. l) Q. O- T; GTitle                          : Chinese (Hong Kong)+ f' T& V' \& p
Language                       : Chinese
7 n) k# h0 `  W# cDefault                        : No
( l" t: f+ q! _2 bForced                         : No; o  s# U4 n- ?( @' z, L8 ~1 i; e
# F! K' f# J4 V4 c

) e& }: M8 I; ^; rText #246 t6 f6 n) F8 W3 r/ w
ID                             : 26; R% x! V4 D6 I
Format                         : UTF-8
3 x( u3 L( C6 n- r7 M+ JCodec ID                       : S_TEXT/UTF8
- V( c! h' K; V' [2 |! r) G( RCodec ID/Info                  : UTF-8 Plain Text" c2 b4 ~( S) ^/ B( y% N
Duration                       : 42 min 6 s1 C* E/ I0 W4 ?; J$ J
Bit rate                       : 51 b/s
  h! k7 x5 P4 d. M/ v3 W/ Y9 d3 CFrame rate                     : 0.182 FPS
+ z' P$ I4 s4 }! X, L2 kCount of elements              : 461
, j+ ^$ A/ p# p9 uStream size                    : 15.8 KiB (0%)% Q( S3 R5 L' S" A
Title                          : Chinese (Traditional)' f2 D# S3 `' V5 y
Language                       : Chinese
) E% m) i- s: ]4 D5 @Default                        : No7 S9 X! i6 [4 ?: |" v2 `: n& c2 }
Forced                         : No
" s$ J; W: U) Q
, b+ X' x6 A; l* V$ W$ u1 Z! k* m
( ]+ U3 Q3 F" F7 b2 F
Text #25
5 C, v9 x2 A. W# f0 g* k" wID                             : 271 c* T: m+ F  F0 W) i) A3 X/ H
Format                         : UTF-8
3 W) V8 o- i& q, ]Codec ID                       : S_TEXT/UTF8& ]0 x& D) B% o; l$ }
Codec ID/Info                  : UTF-8 Plain Text
! J; A8 D& m# m& e8 z% CDuration                       : 42 min 6 s
$ G2 R0 P+ p/ LBit rate                       : 50 b/s6 |1 |, w! ^1 b1 f, h
Frame rate                     : 0.183 FPS
7 I, g! D7 k6 ^" P) ICount of elements              : 462
* H2 |8 ~+ f3 {2 U( Y. ~Stream size                    : 15.6 KiB (0%)- }3 [: m- B& K
Title                          : Chinese (Simplified)0 x6 H+ T  H; l* o/ D
Language                       : Chinese- a2 c8 y0 s/ C, J8 S, ]
Default                        : No
1 m- p2 r# Y$ {( eForced                         : No

; `* I2 `$ c+ h

4K 贝尔蒂·格雷戈里的壮观...5.10bit.HDR.DDP5.1-KOGi[rartv].txt ( 230 Bytes )


% F7 B. P( ~) p3 R7 r2 ^
  q/ d$ u# S% W. i
4 u. h( Q: y5 L- o1 p- S& F1 g# p4 \; l
登录 发布 快速回复 返回顶部 返回列表