开启辅助访问
 找回密码
 立即注册

少女时代 第二次日本全国巡演 Girl-s Generation ~Girls & Peace~ Japan 2nd Tour Limited Edit

#韩国#时间:2023-05-01 阅读:272 回复:0
111332v944zt80vmtz78tt.jpg.jpg

下过日版原盘的可以校验下载 可少下一点

影片信息
片  名 : Girls.Generation.Japan.2nd.Tour.Limited.Edition
译  名 : GIRLS GENERATION JAPAN 2ND TOUR LIMITED EDITION 少女时代日本巡演唱会2
类   别: 演唱会
国  家 : 韩国 日语
语  言 : 韩语 日语
视频尺寸 : 1920*1080
片   长: 2:50:47

主   演
        林允儿
          权侑莉
          崔秀英
          李顺圭
          徐珠贤
          金泰妍
          郑秀妍
          黄美英
          金孝渊

简   介
         少女时代(Girls'Generation)是韩国SM娱乐有限公司于2007年推出的女子流行演唱团体,由金泰妍、郑秀妍、李顺圭、黄美英、金孝渊、权侑莉、崔秀英、林允儿和徐珠贤9人组成[1] ,现以8名成员的形式展开演艺活动[2] 。
2007年8月5日,少女时代发行首支单曲《再次重逢的世界》正式出道,并于11月1日发行第一张同名专辑《少女时代》[3] 。2009年发行首张迷你专辑《Gee》,在乐坛走红[4] 。2011年6月发行首张日语专辑《Girls'Generation》,并于2012年6月获得日本唱片工业协会百万专辑正式认证[5] ;同年10月19日发行第三张专辑《The boys》。2012年4月,少女时代首次推出团体小分队TaeTiSeo [6] ,发行迷你专辑《Twinkle》。2013年1月1日发行第四张专辑《I Got A Boy》[7] 。2014年2月24日发行第四张迷你专辑《Mr.Mr.》[8] ;9月30日,少女时代的经纪公司宣布成员郑秀妍因个人事业与少女时代的演艺事业相冲突而退出团体[9-10]   。
少女时代的第二次日本全国巡回「Girls & Peace~ 2nd Japan Tour」由2013年2月至4月在七个城市举行20场公演,动员20万人。是次演唱会以她们的第二张日文专辑《Girls & Peace》为中心,热唱了专辑中的「FLOWER POWER」、「Stay Girls」、「Paparazzi」,以及「GENIE」、「Gee」和「Run Devil Run」等人气日文单曲。
此版本附44页Photo Booklet和Special T-shirt(M码)。特别影像收入三首歌曲的舞蹈版影像和巡回纪实完整曲目
曲       目
01.~OPENING MOVIE~
02.FLOWER POWER
03.Animal
04.BOOMERANGE
05.~MOVIE~
06.The Boys
07.I GOT A BOY
08.~MC~
09.Say Yes
10.Dancing Queen
11.~MOVIE~
12.MR.TAXI
13.T.O.P
14.BAD GIRL
15.~MOVIE~
16.PAPARAZZI
17.Run Devil Run
18.Reflection
19.~MOVIE~
20.Time Machine
21.All MY LOVE IS FOR YOU
22.~MOVIE~
23.I'm a Diamond
24.Express999
25.GENIE
26.THE GREAT ESCAPE
27.CAN'T TAKE MY EYES OFF YOU
28.~MOVIE~
29.MY J
30.Kissing you
31.Way To Go
32.Gee
33.~MC~
34.Not Alone
35.~Clip~
36.BEEP BEEP
37.Oh!
38.~MC~
39.Stay Girls
40.Girls & Peace

影片参数
Disc Title:     
Disc Size:     41,668,102,496 bytes
Protection:     AACS
BD-Java:       No
BDInfo:         0.5.8

PLAYLIST REPORT:

Name:                   00001.MPLS
Length:                 2:50:47.236 (h:m:s.ms)
Size:                   41,500,981,248 bytes
Total Bitrate:         32.40 Mbps

VIDEO:

Codec                   Bitrate             Description     
-----                   -------             -----------     
MPEG-4 AVC Video       23411 kbps         1080i / 29.970 fps / 16:9 / High Profile 4.1

AUDIO:

Codec                           Language       Bitrate         Description     
-----                           --------        -------         -----------     
LPCM Audio                     Multiple languages2304 kbps       2.0 / 48 kHz / 2304 kbps / 24-bit
DTS-HD Master Audio             Multiple languages4817 kbps       5.1 / 48 kHz / 4817 kbps / 24-bit (DTS Core: 5.1 / 48 kHz / 1509 kbps / 24-bit)

SUBTITLES:

Codec                           Language       Bitrate         Description     
-----                           --------        -------         -----------     
Presentation Graphics           Chinese         90.775 kbps                     
Presentation Graphics           Chinese         90.975 kbps                     

FILES:

Name           Time In         Length         Size           Total Bitrate   
----            -------         ------          ----            -------------   
00003.M2TS     0:00:00.000     1:22:01.216     20,072,251,392 32,630         
00004.M2TS     1:22:01.216     1:01:55.411     15,240,726,528 32,816         
00008.M2TS     2:23:56.627     0:02:56.176     622,565,376     28,270         
00009.M2TS     2:26:52.803     0:03:55.234     835,061,760     28,399         
00010.M2TS     2:30:48.038     0:03:00.180     636,069,888     28,242         
00011.M2TS     2:33:48.218     0:16:59.018     4,094,306,304   32,143  


少女时代 第二次日本全国巡演 Girl-s Generation ~Girls & Peace~ Japan 2nd Tour Limited Edition 2013][日版 DIY繁简特效字幕][38.81GB]
115网盘下载

少女时代 第二次日本全国巡演.txt ( 272 Bytes )


登录 发布 快速回复 返回顶部 返回列表