开启辅助访问
 找回密码
 立即注册
最食人间烟火色 豆瓣评分: 7.5 状态: 第一季(完结) 画质标准: 4K(3840x2160) 音轨声道: 其他AAC   2.0声道 日期: 2023-03-31 地区: 大陆  类型: 剧情  导演: 梁国冠 / 王辉 主演: 卢洋洋 / 陈鑫海 / 南笙 / 赵振廷 / 籍皓
预告片欣赏
取消
简介 :

贷款上班的银行社畜司清(卢洋洋 饰)是个十足的美强惨,工作业绩斐然,过着追求车子房子票子的“俗气”生活。为了追回一起不良贷款,她与传统手艺匠人景琛(陈鑫海 饰)初次相遇。一个是被追债任务”绑架“而充满铜臭味的白领,一个是没车没房没票子,却坐拥田园,与青山绿水围绕的清冷手工匠人。互相看不顺眼的两人“相见相杀”般地纠缠不清。在冬至生日的这天,被父母遗忘、被同事孤立的司清内心狼狈不堪,终于到了成年人的崩溃边缘。直到在璟园那充满江南风韵的长廊下,景琛一碗冬至习俗的甜酒鸡蛋,被司清误认为是生日唯一的温暖,冲动之下提出结婚。而景琛,也因司清手中握有另外半卷题跋,进而答应了她的要求。 然而,结婚只是开始....

  • 剧集下载
  • 资源INFO
  • 下载说明
  • 《最食人间烟火色》4k剧集 · 网盘/云盘/BT 下载  Cloud storage / Cloud disk / BT download
      隐藏内容
  • 《最食人间烟火色》影片INFO  Video INFO



    《最食人间烟火色》4k剧集 · 网盘/云盘/BT 下载  Cloud storage / Cloud disk / BT download
      隐藏内容
  • 下载本版资源三步骤
    1、在《4K电视剧列表》找到并打开剧集下载页,点击下载框按钮或复制磁力链,将BT种子下载到电脑中。
    2、电脑安装《BT下载软件》,免费的推荐使用《UTorrent》下载,收费的推荐使用《115网盘》下载(速度又快又稳).
    3、用BT下载软件,打开BT种子、或将磁力链复制粘贴到BT软件中即可下载。


    下载速度慢怎么办
    1、正常情况使用《UTorrent》跟着网站发布资源节奏下载速度很快,可以达到宽带最大速度(电信)
    2、推荐使用《115网盘》下载速度又快又稳定,请勿使用迅雷下载;
    3、下载慢是有多方面原因,即依赖种子的热度、也要求是电信宽带(非移动/联通),同时选择对的下载软件和软件设置方法。
    4、使用BT协议下载没有速度,请更新《Trackers服务器》能够增加在线用户(越多越好),该方法使用《UTorrent》下载效果显著。
    更多下载问题参考: 4K电影下载新手学院>>

    多个种子/电影版本区别
    蓝光原盘BDMV
    俗称4K蓝光原盘,也就是从4K UHD蓝光碟中提取出来的源文件,由多个m2ts文件组成,与正版盘完全一致,且包含了光盘所有内容 (影片花絮、字幕、导航菜单、多语言多音轨、HDR 信息)等等,文件体积大,一部电影约有60GB+。此版本资源一般以「BDMV 文件夹」或「BDISO」 (iso) 格式发布;该版本可以用刻录机成带导航的光盘效果。

    DIY蓝光原盘BDMV
    经资源制作组基于蓝光原盘BDMV版本进行第二次DIY的版本,将片头AE特效、画面HDR调色、封装国语音轨、封装中文简体/繁体/英文等多语言字幕,更精彩的是是特效字幕(将电影画面中某些细节翻译成中文字幕)。

    蓝光BD-REMUX
    俗称REMUX,可以视为「音画质无损的精简版」"4K原盘",它其实就是将原盘里多余的一些音轨、花絮、菜单、字幕等东西移除或精简,仅保留主要的视频、主要音轨和部分语言字幕,然后再封装成「单个文件」的 .mkv 格式而来,其音质画质与BDMV蓝光原盘一致,但文件体积上能大幅缩减且成单个文件,在电脑上播放/管理/电视播放/播放器播放和分享起来也更方便。适合追求原盘音画质、不重视花絮周边内容、又希望稍微节省点硬盘空间的朋友。

    WEB-DL/WEBRip/流媒体版本
    WEB-DL 或 WEBRip 格式的影片主要来自 、Amazon Prime Video、Netflix、Hulu、YouTube 等「在线网络高清片源」。尽管这些服务提供了4K分辨率 (部分含 HDR) 的片源,但它们为了在线观看的流畅性,都会将视频画质进行较大幅度「有损压缩」。 WEB-DL 是 Web Download 的意思,指通过技术手段「直接下载」回来的在线视频 WEBRip 很多时候则是通过"屏幕转录"等方式二次录制,会造成多一次的画质损失。



    《最食人间烟火色》4k剧集 · 网盘/云盘/BT 下载  Cloud storage / Cloud disk / BT download
      隐藏内容
Video
ID                             : 2
Format                         : HEVC
Format/Info                    : High Efficiency Video Coding
Format profile                 : Main@L5@Main
Codec ID                       : hev1
Codec ID/Info                  : High Efficiency Video Coding
Duration                       : 33 min 36 s
Bit rate                       : 3 942 kb/s
Width                          : 3 840 pixels
Height                         : 2 160 pixels
Display aspect ratio           : 16:9
Frame rate mode                : Constant
Frame rate                     : 25.000 FPS
Color space                    : YUV
Chroma subsampling             : 4:2:0
Bit depth                      : 8 bits
Bits/(Pixel*Frame)             : 0.019
Stream size                    : 948 MiB (93%)
Title                          : 1
Codec configuration box        : hvcC
Audio #1
ID                             : 1
Format                         : E-AC-3
Format/Info                    : Enhanced AC-3
Commercial name                : Dolby Digital Plus
Codec ID                       : ec-3
Duration                       : 33 min 36 s
Bit rate mode                  : Constant
Bit rate                       : 96.0 kb/s
Channel(s)                     : 2 channels
Channel layout                 : L R
Sampling rate                  : 48.0 kHz
Frame rate                     : 31.250 FPS (1536 SPF)
Compression mode               : Lossy
Stream size                    : 23.1 MiB (2%)
Title                          : Mandarin,DDP
Language                       : Chinese
Service kind                   : Complete Main
Default                        : Yes
Alternate group                : 1
Audio #2
ID                             : 3
Format                         : AAC LC
Format/Info                    : Advanced Audio Codec Low Complexity
Codec ID                       : mp4a-40-2
Duration                       : 33 min 37 s
Bit rate mode                  : Variable
Bit rate                       : 192 kb/s
Channel(s)                     : 2 channels
Channel layout                 : L R
Sampling rate                  : 44.1 kHz
Frame rate                     : 43.066 FPS (1024 SPF)
Compression mode               : Lossy
Stream size                    : 45.5 MiB (4%)
Title                          : Mandarin
Language                       : Chinese
Default                        : No
Alternate group                : 1
Text #1
ID                             : 5
Format                         : Timed Text
Muxing mode                    : sbtl
Codec ID                       : tx3g
Duration                       : 31 min 38 s
Bit rate mode                  : Variable
Bit rate                       : 42 b/s
Frame rate                     : 0.381 FPS
Stream size                    : 9.72 KiB (0%)
Title                          : 中文(简体)
Language                       : Chinese
Default                        : Yes
Forced                         : No
Alternate group                : 3
Count of events                : 411
Text #2
ID                             : 6
Format                         : Timed Text
Muxing mode                    : sbtl
Codec ID                       : tx3g
Duration                       : 31 min 38 s
Bit rate mode                  : Variable
Bit rate                       : 42 b/s
Frame rate                     : 0.381 FPS
Stream size                    : 9.72 KiB (0%)
Title                          : 中文(繁體)
Language                       : Chinese
Default                        : No
Forced                         : No
Alternate group                : 3
Count of events                : 411


最食人间烟火色(全23集)(国语中字)(23.4G)Falling.Before.Fireworks.2023.V2.WEB-DL.2160p.H265.AAC-4k国产电视剧下载

最食人间烟火色.txt ( 201 Bytes )




最新回复
还没人回复...
登录 发布 快速回复 返回顶部 返回列表