开启辅助访问
 找回密码
 立即注册
鬼玩人崛起 豆瓣评分: 6.8分 年份: 2023年 片长: 97 分钟 地区: 美国  类型: 恐怖  格式: 4K HDR  音轨: Dolby TrueHD 5.1  导演: 李·克罗宁 主演: 米拉拜·皮斯 / 理查德·克劳奇利 / 安娜玛丽·托马斯 / 莉莉·沙利文 / 诺亚·保罗
预告片欣赏
取消
简介 :

  该片故事场景从原本的森林转移到城市中,描述一对感情疏离的姐妹,在重逢后发生变故,不仅被迫与附身肉体的恶灵展开残酷的生死战斗,更必须面对如噩梦般的家庭成员。

  • 电影下载
  • 资源INFO
  • 下载说明
  • 《鬼玩人崛起》4k电影 · 网盘/云盘/BT 下载  Cloud storage / Cloud disk / BT download

  • 《鬼玩人崛起》电影INFO  Video INFO
    Video
    ID : 1
    Format : HEVC
    Format/Info : High Efficiency Video Coding
    Format profile : Main 10@L5@High
    HDR format : Dolby Vision, Version 1.0, dvhe.08.06, BL+RPU, HDR10 compatible / SMPTE ST 2086, HDR10 compatible
    Codec ID : V_MPEGH/ISO/HEVC
    Duration : 1 h 36 min
    Bit rate : 24.6 Mb/s
    Width : 3 840 pixels
    Height : 2 160 pixels
    Display aspect ratio : 16:9
    Frame rate mode : Constant
    Frame rate : 23.976 (24000/1001) FPS
    Color space : YUV
    Chroma subsampling : 4:2:0 (Type 2)
    Bit depth : 10 bits
    Bits/(Pixel*Frame) : 0.124
    Stream size : 16.5 GiB (97%)
    Language : English
    Default : Yes
    Forced : No
    Color range : Limited
    Color primaries : BT.2020
    Transfer characteristics : PQ
    Matrix coefficients : BT.2020 non-constant
    Mastering display color primaries : BT.2020
    Mastering display luminance : min: 0.0001 cd/m2, max: 1000 cd/m2
    Maximum Content Light Level : 608 cd/m2
    Maximum Frame-Average Light Level : 70 cd/m2

    Audio
    ID : 2
    Format : E-AC-3 JOC
    Format/Info : Enhanced AC-3 with Joint Object Coding
    Commercial name : Dolby Digital Plus with Dolby Atmos
    Codec ID : A_EAC3
    Duration : 1 h 36 min
    Bit rate mode : Constant
    Bit rate : 768 kb/s
    Channel(s) : 6 channels
    Channel layout : L R C LFE Ls Rs
    Sampling rate : 48.0 kHz
    Frame rate : 31.250 FPS (1536 SPF)
    Compression mode : Lossy
    Stream size : 530 MiB (3%)
    Language : English
    Service kind : Complete Main
    Default : Yes
    Forced : No
    Complexity index : 16
    Number of dynamic objects : 15
    Bed channel count : 1 channel
    Bed channel configuration : LFE

    Text #1
    ID : 3
    Format : UTF-8
    Codec ID : S_TEXT/UTF8
    Codec ID/Info : UTF-8 Plain Text
    Duration : 1 h 27 min
    Bit rate : 27 b/s
    Frame rate : 0.124 FPS
    Count of elements : 656
    Stream size : 17.9 KiB (0%)
    Language : English
    Default : No
    Forced : No

    Text #2
    ID : 4
    Format : UTF-8
    Codec ID : S_TEXT/UTF8
    Codec ID/Info : UTF-8 Plain Text
    Duration : 1 h 36 min
    Bit rate : 38 b/s
    Frame rate : 0.191 FPS
    Count of elements : 1103
    Stream size : 26.8 KiB (0%)
    Title : SDH
    Language : English
    Default : No
    Forced : No

    Text #3
    ID : 5
    Format : UTF-8
    Codec ID : S_TEXT/UTF8
    Codec ID/Info : UTF-8 Plain Text
    Duration : 1 h 35 min
    Bit rate : 42 b/s
    Frame rate : 0.114 FPS
    Count of elements : 649
    Stream size : 29.4 KiB (0%)
    Language : Arabic
    Default : No
    Forced : No

    Text #4
    ID : 6
    Format : UTF-8
    Codec ID : S_TEXT/UTF8
    Codec ID/Info : UTF-8 Plain Text
    Duration : 1 h 35 min
    Bit rate : 38 b/s
    Frame rate : 0.113 FPS
    Count of elements : 648
    Stream size : 27.0 KiB (0%)
    Language : Bulgarian
    Default : No
    Forced : No

    Text #5
    ID : 7
    Format : UTF-8
    Codec ID : S_TEXT/UTF8
    Codec ID/Info : UTF-8 Plain Text
    Duration : 1 h 35 min
    Bit rate : 23 b/s
    Frame rate : 0.111 FPS
    Count of elements : 635
    Stream size : 16.3 KiB (0%)
    Title : Simplified
    Language : Chinese (Simplied)
    Default : No
    Forced : No

    Text #6
    ID : 8
    Format : UTF-8
    Codec ID : S_TEXT/UTF8
    Codec ID/Info : UTF-8 Plain Text
    Duration : 1 h 35 min
    Bit rate : 20 b/s
    Frame rate : 0.109 FPS
    Count of elements : 623
    Stream size : 14.1 KiB (0%)
    Title : Traditional
    Language : Chinese (Traditional)
    Default : No
    Forced : No

    Text #7
    ID : 9
    Format : UTF-8
    Codec ID : S_TEXT/UTF8
    Codec ID/Info : UTF-8 Plain Text
    Duration : 1 h 35 min
    Bit rate : 23 b/s
    Frame rate : 0.112 FPS
    Count of elements : 637
    Stream size : 16.3 KiB (0%)
    Language : Czech
    Default : No
    Forced : No

    Text #8
    ID : 10
    Format : UTF-8
    Codec ID : S_TEXT/UTF8
    Codec ID/Info : UTF-8 Plain Text
    Duration : 1 h 35 min
    Bit rate : 24 b/s
    Frame rate : 0.086 FPS
    Count of elements : 490
    Stream size : 17.1 KiB (0%)
    Language : Danish
    Default : No
    Forced : No

    Text #9
    ID : 11
    Format : UTF-8
    Codec ID : S_TEXT/UTF8
    Codec ID/Info : UTF-8 Plain Text
    Duration : 1 h 35 min
    Bit rate : 27 b/s
    Frame rate : 0.098 FPS
    Count of elements : 561
    Stream size : 18.8 KiB (0%)
    Language : German (DE)
    Default : No
    Forced : No

    Text #10
    ID : 12
    Format : UTF-8
    Codec ID : S_TEXT/UTF8
    Codec ID/Info : UTF-8 Plain Text
    Duration : 1 h 35 min
    Bit rate : 40 b/s
    Frame rate : 0.112 FPS
    Count of elements : 641
    Stream size : 28.4 KiB (0%)
    Language : Greek
    Default : No
    Forced : No

    Text #11
    ID : 13
    Format : UTF-8
    Codec ID : S_TEXT/UTF8
    Codec ID/Info : UTF-8 Plain Text
    Duration : 1 h 35 min
    Bit rate : 25 b/s
    Frame rate : 0.113 FPS
    Count of elements : 648
    Stream size : 17.6 KiB (0%)
    Title : Latin American
    Language : Spanish (Latin America)
    Default : No
    Forced : No

    Text #12
    ID : 14
    Format : UTF-8
    Codec ID : S_TEXT/UTF8
    Codec ID/Info : UTF-8 Plain Text
    Duration : 1 h 35 min
    Bit rate : 25 b/s
    Frame rate : 0.108 FPS
    Count of elements : 619
    Stream size : 17.5 KiB (0%)
    Language : Spanish (ES)
    Default : No
    Forced : No

    Text #13
    ID : 15
    Format : UTF-8
    Codec ID : S_TEXT/UTF8
    Codec ID/Info : UTF-8 Plain Text
    Duration : 1 h 35 min
    Bit rate : 25 b/s
    Frame rate : 0.111 FPS
    Count of elements : 633
    Stream size : 18.0 KiB (0%)
    Language : Estonian
    Default : No
    Forced : No

    Text #14
    ID : 16
    Format : UTF-8
    Codec ID : S_TEXT/UTF8
    Codec ID/Info : UTF-8 Plain Text
    Duration : 1 h 35 min
    Bit rate : 23 b/s
    Frame rate : 0.115 FPS
    Count of elements : 658
    Stream size : 16.7 KiB (0%)
    Language : Finnish
    Default : No
    Forced : No

    Text #15
    ID : 17
    Format : UTF-8
    Codec ID : S_TEXT/UTF8
    Codec ID/Info : UTF-8 Plain Text
    Duration : 1 h 35 min
    Bit rate : 39 b/s
    Frame rate : 0.114 FPS
    Count of elements : 649
    Stream size : 27.3 KiB (0%)
    Language : Hebrew
    Default : No
    Forced : No

    Text #16
    ID : 18
    Format : UTF-8
    Codec ID : S_TEXT/UTF8
    Codec ID/Info : UTF-8 Plain Text
    Duration : 1 h 35 min
    Bit rate : 25 b/s
    Frame rate : 0.109 FPS
    Count of elements : 625
    Stream size : 18.0 KiB (0%)
    Language : Hungarian
    Default : No
    Forced : No

    Text #17
    ID : 19
    Format : UTF-8
    Codec ID : S_TEXT/UTF8
    Codec ID/Info : UTF-8 Plain Text
    Duration : 1 h 35 min
    Bit rate : 23 b/s
    Frame rate : 0.110 FPS
    Count of elements : 626
    Stream size : 16.2 KiB (0%)
    Language : Italian (IT)
    Default : No
    Forced : No

    Text #18
    ID : 20
    Format : UTF-8
    Codec ID : S_TEXT/UTF8
    Codec ID/Info : UTF-8 Plain Text
    Duration : 1 h 35 min
    Bit rate : 27 b/s
    Frame rate : 0.111 FPS
    Count of elements : 635
    Stream size : 19.3 KiB (0%)
    Language : Korean
    Default : No
    Forced : No

    Text #19
    ID : 21
    Format : UTF-8
    Codec ID : S_TEXT/UTF8
    Codec ID/Info : UTF-8 Plain Text
    Duration : 1 h 35 min
    Bit rate : 24 b/s
    Frame rate : 0.114 FPS
    Count of elements : 649
    Stream size : 17.1 KiB (0%)
    Language : Lithuanian
    Default : No
    Forced : No

    Text #20
    ID : 22
    Format : UTF-8
    Codec ID : S_TEXT/UTF8
    Codec ID/Info : UTF-8 Plain Text
    Duration : 1 h 35 min
    Bit rate : 24 b/s
    Frame rate : 0.118 FPS
    Count of elements : 672
    Stream size : 17.1 KiB (0%)
    Language : Latvian
    Default : No
    Forced : No

    Text #21
    ID : 23
    Format : UTF-8
    Codec ID : S_TEXT/UTF8
    Codec ID/Info : UTF-8 Plain Text
    Duration : 1 h 35 min
    Bit rate : 20 b/s
    Frame rate : 0.077 FPS
    Count of elements : 437
    Stream size : 14.5 KiB (0%)
    Language : Dutch
    Default : No
    Forced : No

    Text #22
    ID : 24
    Format : UTF-8
    Codec ID : S_TEXT/UTF8
    Codec ID/Info : UTF-8 Plain Text
    Duration : 1 h 35 min
    Bit rate : 23 b/s
    Frame rate : 0.090 FPS
    Count of elements : 515
    Stream size : 16.5 KiB (0%)
    Language : Norwegian
    Default : No
    Forced : No

    Text #23
    ID : 25
    Format : UTF-8
    Codec ID : S_TEXT/UTF8
    Codec ID/Info : UTF-8 Plain Text
    Duration : 1 h 35 min
    Bit rate : 24 b/s
    Frame rate : 0.111 FPS
    Count of elements : 634
    Stream size : 17.0 KiB (0%)
    Language : Polish
    Default : No
    Forced : No

    Text #24
    ID : 26
    Format : UTF-8
    Codec ID : S_TEXT/UTF8
    Codec ID/Info : UTF-8 Plain Text
    Duration : 1 h 35 min
    Bit rate : 25 b/s
    Frame rate : 0.113 FPS
    Count of elements : 647
    Stream size : 17.9 KiB (0%)
    Title : Brazilian
    Language : Portuguese (BR)
    Default : No
    Forced : No

    Text #25
    ID : 27
    Format : UTF-8
    Codec ID : S_TEXT/UTF8
    Codec ID/Info : UTF-8 Plain Text
    Duration : 1 h 35 min
    Bit rate : 25 b/s
    Frame rate : 0.111 FPS
    Count of elements : 633
    Stream size : 18.0 KiB (0%)
    Language : Portuguese (PT)
    Default : No
    Forced : No

    Text #26
    ID : 28
    Format : UTF-8
    Codec ID : S_TEXT/UTF8
    Codec ID/Info : UTF-8 Plain Text
    Duration : 1 h 35 min
    Bit rate : 22 b/s
    Frame rate : 0.107 FPS
    Count of elements : 610
    Stream size : 15.5 KiB (0%)
    Language : Slovak
    Default : No
    Forced : No

    Text #27
    ID : 29
    Format : UTF-8
    Codec ID : S_TEXT/UTF8
    Codec ID/Info : UTF-8 Plain Text
    Duration : 1 h 35 min
    Bit rate : 23 b/s
    Frame rate : 0.082 FPS
    Count of elements : 467
    Stream size : 16.2 KiB (0%)
    Language : Swedish
    Default : No
    Forced : No

    Text #28
    ID : 30
    Format : UTF-8
    Codec ID : S_TEXT/UTF8
    Codec ID/Info : UTF-8 Plain Text
    Duration : 1 h 27 min
    Bit rate : 61 b/s
    Frame rate : 0.123 FPS
    Count of elements : 647
    Stream size : 39.8 KiB (0%)
    Language : Thai
    Default : No
    Forced : No

    Text #29
    ID : 31
    Format : UTF-8
    Codec ID : S_TEXT/UTF8
    Codec ID/Info : UTF-8 Plain Text
    Duration : 1 h 35 min
    Bit rate : 24 b/s
    Frame rate : 0.111 FPS
    Count of elements : 635
    Stream size : 17.1 KiB (0%)
    Language : Turkish
    Default : No
    Forced : No

    Text #30
    ID : 32
    Format : UTF-8
    Codec ID : S_TEXT/UTF8
    Codec ID/Info : UTF-8 Plain Text
    Duration : 1 h 35 min
    Bit rate : 40 b/s
    Frame rate : 0.111 FPS
    Count of elements : 636
    Stream size : 28.0 KiB (0%)
    Language : Ukrainian
    Default : No
    Forced : No

    Menu
    00:00:00.000 : en:Chapter 01
    00:11:02.871 : en:Chapter 02
    00:21:20.030 : en:Chapter 03
    00:30:10.352 : en:Chapter 04
    00:39:46.720 : en:Chapter 05
    00:50:15.098 : en:Chapter 06
    01:00:02.143 : en:Chapter 07
    01:09:21.327 : en:Chapter 08
    01:18:26.164 : en:Chapter 09
    01:30:09.909 : en:Chapter 10



    《鬼玩人崛起》4k电影 · 网盘/云盘/BT 下载  Cloud storage / Cloud disk / BT download
  • 下载本版资源三步骤
    1、在《4K电影列表》找到并打开电影下载页,点击下载框按钮或复制磁力链,将BT种子下载到电脑中。
    2、电脑安装《BT下载软件》,免费的推荐使用《UTorrent》下载,收费的推荐使用《115网盘》下载(速度又快又稳).
    3、用BT下载软件,打开BT种子、或将磁力链复制粘贴到BT软件中即可下载。


    下载速度慢怎么办
    1、正常情况使用《UTorrent》跟着网站发布资源节奏下载速度很快,可以达到宽带最大速度(电信)
    2、推荐使用《115网盘》下载速度又快又稳定,请勿使用迅雷下载;
    3、下载慢是有多方面原因,即依赖种子的热度、也要求是电信宽带(非移动/联通),同时选择对的下载软件和软件设置方法。
    4、使用BT协议下载没有速度,请更新《Trackers服务器》能够增加在线用户(越多越好),该方法使用《UTorrent》下载效果显著。
    更多下载问题参考: 4K电影下载新手学院>>

    多个种子/电影版本区别
    蓝光原盘BDMV
    俗称4K蓝光原盘,也就是从4K UHD蓝光碟中提取出来的源文件,由多个m2ts文件组成,与正版盘完全一致,且包含了光盘所有内容 (影片花絮、字幕、导航菜单、多语言多音轨、HDR 信息)等等,文件体积大,一部电影约有60GB+。此版本资源一般以「BDMV 文件夹」或「BDISO」 (iso) 格式发布;该版本可以用刻录机成带导航的光盘效果。

    DIY蓝光原盘BDMV
    经资源制作组基于蓝光原盘BDMV版本进行第二次DIY的版本,将片头AE特效、画面HDR调色、封装国语音轨、封装中文简体/繁体/英文等多语言字幕,更精彩的是是特效字幕(将电影画面中某些细节翻译成中文字幕)。

    蓝光BD-REMUX
    俗称REMUX,可以视为「音画质无损的精简版」"4K原盘",它其实就是将原盘里多余的一些音轨、花絮、菜单、字幕等东西移除或精简,仅保留主要的视频、主要音轨和部分语言字幕,然后再封装成「单个文件」的 .mkv 格式而来,其音质画质与BDMV蓝光原盘一致,但文件体积上能大幅缩减且成单个文件,在电脑上播放/管理/电视播放/播放器播放和分享起来也更方便。适合追求原盘音画质、不重视花絮周边内容、又希望稍微节省点硬盘空间的朋友。

    WEB-DL/WEBRip/流媒体版本
    WEB-DL 或 WEBRip 格式的影片主要来自 、Amazon Prime Video、Netflix、Hulu、YouTube 等「在线网络高清片源」。尽管这些服务提供了4K分辨率 (部分含 HDR) 的片源,但它们为了在线观看的流畅性,都会将视频画质进行较大幅度「有损压缩」。 WEB-DL 是 Web Download 的意思,指通过技术手段「直接下载」回来的在线视频 WEBRip 很多时候则是通过"屏幕转录"等方式二次录制,会造成多一次的画质损失。



    《鬼玩人崛起》4k电影 · 网盘/云盘/BT 下载  Cloud storage / Cloud disk / BT download
鬼玩人:复活(台) / 鬼玩人5/鬼玩人崛起4K Evil.Dead.Rise.2023.2160p.MA.WEB-DL.x265.10bit.HDR.DDP5.1.Atmos.x265-4k电影下载

鬼玩人崛起4K Evil.Dead.Rise.2023.2160p.MA.WEB-DL.x265.10bit.HDR.DDP5.1.Atmos.x265【简繁中字】【HDR 17.06 GB】

鬼玩人崛起4K Evil.Dead.Rise.2023.2160p.MA.WEB-DL.x265.10bit.HDR.DDP5.1.Atmos.x265-CM.torrent ( 21.98 KB )


鬼玩人崛起4K Evil.Dead.Rise.2023.2160p.MA.WEB-DL.x265.10bit.SDR.DDP5.1.Atmos.x265【简繁中字】【SDR  17.16 GB】

鬼玩人崛起 4K Evil.Dead.Rise.2023.2160p.MA.WEB-DL.x265.10bit.SDR.DDP5.1.Atmos.x265-CM.torrent ( 21.81 KB )


鬼玩人崛起4K Evil.Dead.Rise.2023.2160p.MA.WEB-DL.DDP5.1.Atmos.DV.MKV.x265【简繁中字】【杜比视界 17.04 GB】

鬼玩人崛起 4K Evil.Dead.Rise.2023.2160p.MA.WEB-DL.DDP5.1.Atmos.DV.MKV.x265-CM.torrent ( 22.02 KB )


鬼玩人崛起4K Evil.Dead.Rise.2023.2160p.MA.WEB-DL.DDP5.1.Atmos.DV.MP4.x265【简繁中字】【杜比视界 17.04 GB】

鬼玩人崛起 4K Evil.Dead.Rise.2023.2160p.MA.WEB-DL.DDP5.1.Atmos.DV.MP4.x265-DVSUX.torrent ( 21.67 KB )


最新回复
romn| 2023-10-6 07:41:47 | 显示全部楼层
不錯的恐怖電影!值得推薦!
登录 发布 快速回复 返回顶部 返回列表