开启辅助访问
 找回密码
 立即注册
家教噩梦 豆瓣评分: 4.3分 年份: 2023年 片长: 92 分钟 地区: 美国  类型: 惊悚 悬疑  格式: 4K SDR  音轨: Dolby TrueHD 5.1  导演: Jordan Ross 主演: 维多利亚·嘉丝蒂 / 加内特·赫德兰 / 诺亚·施纳普
预告片欣赏
取消
简介 :

跟随一位导师,在一栋豪宅里被分配了一项意想不到的任务后,他发现自己正与学生的痴迷作斗争,学生威胁要揭露他最黑暗的秘密。

  • 电影下载
  • 资源INFO
  • 下载说明
  • 《家教噩梦》4k电影 · 网盘/云盘/BT 下载  Cloud storage / Cloud disk / BT download

  • 《家教噩梦》电影INFO  Video INFO
    Video
    ID : 1
    Format : HEVC
    Format/Info : High Efficiency Video Coding
    Format profile : Main 10@L5@High
    Codec ID : V_MPEGH/ISO/HEVC
    Duration : 1 h 32 min
    Bit rate : 12.0 Mb/s
    Width : 3 828 pixels
    Height : 1 596 pixels
    Display aspect ratio : 2.40:1
    Frame rate mode : Constant
    Frame rate : 23.976 FPS
    Color space : YUV
    Chroma subsampling : 4:2:0
    Bit depth : 10 bits
    Bits/(Pixel*Frame) : 0.082
    Stream size : 7.73 GiB (95%)
    Language : English
    Default : Yes
    Forced : No
    Color range : Limited
    Color primaries : BT.709
    Transfer characteristics : BT.709
    Matrix coefficients : BT.709

    Audio
    ID : 2
    Format : E-AC-3
    Format/Info : Enhanced AC-3
    Commercial name : Dolby Digital Plus
    Codec ID : A_EAC3
    Duration : 1 h 32 min
    Bit rate mode : Constant
    Bit rate : 640 kb/s
    Channel(s) : 6 channels
    Channel layout : L R C LFE Ls Rs
    Sampling rate : 48.0 kHz
    Frame rate : 31.250 FPS (1536 SPF)
    Compression mode : Lossy
    Delay relative to video : 12 ms
    Stream size : 424 MiB (5%)
    Language : English
    Service kind : Complete Main
    Default : Yes
    Forced : No

    Text #1
    ID : 3
    Format : UTF-8
    Codec ID : S_TEXT/UTF8
    Codec ID/Info : UTF-8 Plain Text
    Duration : 1 h 27 min
    Bit rate : 51 b/s
    Frame rate : 0.245 FPS
    Count of elements : 1293
    Stream size : 33.2 KiB (0%)
    Language : English
    Default : No
    Forced : No

    Text #2
    ID : 4
    Format : UTF-8
    Codec ID : S_TEXT/UTF8
    Codec ID/Info : UTF-8 Plain Text
    Duration : 1 h 32 min
    Bit rate : 53 b/s
    Frame rate : 0.265 FPS
    Count of elements : 1469
    Stream size : 36.3 KiB (0%)
    Title : SDH
    Language : English
    Default : No
    Forced : No



    《家教噩梦》4k电影 · 网盘/云盘/BT 下载  Cloud storage / Cloud disk / BT download
  • 下载本版资源三步骤
    1、在《4K电影列表》找到并打开电影下载页,点击下载框按钮或复制磁力链,将BT种子下载到电脑中。
    2、电脑安装《BT下载软件》,免费的推荐使用《UTorrent》下载,收费的推荐使用《115网盘》下载(速度又快又稳).
    3、用BT下载软件,打开BT种子、或将磁力链复制粘贴到BT软件中即可下载。


    下载速度慢怎么办
    1、正常情况使用《UTorrent》跟着网站发布资源节奏下载速度很快,可以达到宽带最大速度(电信)
    2、推荐使用《115网盘》下载速度又快又稳定,请勿使用迅雷下载;
    3、下载慢是有多方面原因,即依赖种子的热度、也要求是电信宽带(非移动/联通),同时选择对的下载软件和软件设置方法。
    4、使用BT协议下载没有速度,请更新《Trackers服务器》能够增加在线用户(越多越好),该方法使用《UTorrent》下载效果显著。
    更多下载问题参考: 4K电影下载新手学院>>

    多个种子/电影版本区别
    蓝光原盘BDMV
    俗称4K蓝光原盘,也就是从4K UHD蓝光碟中提取出来的源文件,由多个m2ts文件组成,与正版盘完全一致,且包含了光盘所有内容 (影片花絮、字幕、导航菜单、多语言多音轨、HDR 信息)等等,文件体积大,一部电影约有60GB+。此版本资源一般以「BDMV 文件夹」或「BDISO」 (iso) 格式发布;该版本可以用刻录机成带导航的光盘效果。

    DIY蓝光原盘BDMV
    经资源制作组基于蓝光原盘BDMV版本进行第二次DIY的版本,将片头AE特效、画面HDR调色、封装国语音轨、封装中文简体/繁体/英文等多语言字幕,更精彩的是是特效字幕(将电影画面中某些细节翻译成中文字幕)。

    蓝光BD-REMUX
    俗称REMUX,可以视为「音画质无损的精简版」"4K原盘",它其实就是将原盘里多余的一些音轨、花絮、菜单、字幕等东西移除或精简,仅保留主要的视频、主要音轨和部分语言字幕,然后再封装成「单个文件」的 .mkv 格式而来,其音质画质与BDMV蓝光原盘一致,但文件体积上能大幅缩减且成单个文件,在电脑上播放/管理/电视播放/播放器播放和分享起来也更方便。适合追求原盘音画质、不重视花絮周边内容、又希望稍微节省点硬盘空间的朋友。

    WEB-DL/WEBRip/流媒体版本
    WEB-DL 或 WEBRip 格式的影片主要来自 、Amazon Prime Video、Netflix、Hulu、YouTube 等「在线网络高清片源」。尽管这些服务提供了4K分辨率 (部分含 HDR) 的片源,但它们为了在线观看的流畅性,都会将视频画质进行较大幅度「有损压缩」。 WEB-DL 是 Web Download 的意思,指通过技术手段「直接下载」回来的在线视频 WEBRip 很多时候则是通过"屏幕转录"等方式二次录制,会造成多一次的画质损失。



    《家教噩梦》4k电影 · 网盘/云盘/BT 下载  Cloud storage / Cloud disk / BT download
家教噩梦4k.The.Tutor.2023.2160p.WEB-DL.x265.10bit.SDR.DDP5.1-4k电影下载

家教噩梦4k.The.Tutor.2023.2160p.WEB-DL.x265.10bit.SDR.DDP5.1【8.14 GB】

The.Tutor.2023.2160p.WEB-DL.x265.10bit.SDR.DDP5.1-FLUX.torrent ( 20.7 KB )



家教噩梦4k电影中文字幕下载

家教噩梦The.Tutor.2023.1080p.WEBRip.x264-RARBG.ass ( 155.02 KB )





最新回复
还没人回复...
登录 发布 快速回复 返回顶部 返回列表