开启辅助访问
 找回密码
 立即注册
气垫传奇 豆瓣评分: 7.6分 年份: 2023年 片长: 111 分钟 地区: 美国  类型: 剧情 传记 运动  格式: 4K HDR  音轨: Dolby TrueHD 5.1 Dolby Atmos  导演: 本·阿弗莱克 主演: 马特·达蒙 / 杰森·贝特曼 / 本·阿弗莱克 / 克里斯·梅西纳 / 维奥拉·戴维斯
预告片欣赏
取消
简介 :

  讲述当年还是新人球员的迈克尔·乔丹,和耐克成立不久的篮球部门合作,凭着Air Jordan改写体育世界及流行文化。片中的故事感动人心,呈现一个不按牌理出牌的团队赌上一切、一位清楚知道自己儿子有着无比才华及巨大价值的母亲,以及一位将成为史上最伟大的篮球天才。

  • 电影下载
  • 资源INFO
  • 下载说明
  • 《气垫传奇》4k电影 · 网盘/云盘/BT 下载  Cloud storage / Cloud disk / BT download

  • 《气垫传奇》电影INFO  Video INFO
    Video
    ID : 1
    Format : HEVC
    Format/Info : High Efficiency Video Coding
    Format profile : Main 10@L5@Main
    HDR format : Dolby Vision, Version 1.0, dvhe.05.06, BL+RPU
    Codec ID : V_MPEGH/ISO/HEVC
    Duration : 1 h 54 min
    Bit rate : 19.7 Mb/s
    Width : 3 840 pixels
    Height : 2 160 pixels
    Display aspect ratio : 16:9
    Frame rate mode : Constant
    Frame rate : 24.000 FPS
    Color space : YUV
    Chroma subsampling : 4:2:0
    Bit depth : 10 bits
    Bits/(Pixel*Frame) : 0.099
    Stream size : 15.7 GiB (97%)
    Language : English (US)
    Default : Yes
    Forced : No
    Color range : Full

    Audio
    ID : 2
    Format : E-AC-3 JOC
    Format/Info : Enhanced AC-3 with Joint Object Coding
    Commercial name : Dolby Digital Plus with Dolby Atmos
    Codec ID : A_EAC3
    Duration : 1 h 54 min
    Bit rate mode : Constant
    Bit rate : 576 kb/s
    Channel(s) : 6 channels
    Channel layout : L R C LFE Ls Rs
    Sampling rate : 48.0 kHz
    Frame rate : 31.250 FPS (1536 SPF)
    Compression mode : Lossy
    Stream size : 470 MiB (3%)
    Language : English (US)
    Service kind : Complete Main
    Default : Yes
    Forced : No
    Complexity index : 16
    Number of dynamic objects : 15
    Bed channel count : 1 channel
    Bed channel configuration : LFE

    Text #1
    ID : 3
    Format : UTF-8
    Codec ID : S_TEXT/UTF8
    Codec ID/Info : UTF-8 Plain Text
    Duration : 1 h 47 min
    Bit rate : 95 b/s
    Frame rate : 0.347 FPS
    Count of elements : 2239
    Stream size : 75.6 KiB (0%)
    Language : English (US)
    Default : No
    Forced : No

    Text #2
    ID : 4
    Format : UTF-8
    Codec ID : S_TEXT/UTF8
    Codec ID/Info : UTF-8 Plain Text
    Duration : 1 h 51 min
    Bit rate : 98 b/s
    Frame rate : 0.357 FPS
    Count of elements : 2385
    Stream size : 80.6 KiB (0%)
    Title : SDH
    Language : English (US)
    Default : No
    Forced : No

    Text #3
    ID : 5
    Format : UTF-8
    Codec ID : S_TEXT/UTF8
    Codec ID/Info : UTF-8 Plain Text
    Duration : 1 h 50 min
    Bit rate : 124 b/s
    Frame rate : 0.264 FPS
    Count of elements : 1751
    Stream size : 100 KiB (0%)
    Language : Arabic (001)
    Default : No
    Forced : No

    Text #4
    ID : 6
    Format : UTF-8
    Codec ID : S_TEXT/UTF8
    Codec ID/Info : UTF-8 Plain Text
    Duration : 1 h 50 min
    Bit rate : 72 b/s
    Frame rate : 0.261 FPS
    Count of elements : 1734
    Stream size : 58.8 KiB (0%)
    Title : European
    Language : Catalan (ES)
    Default : No
    Forced : No

    Text #5
    ID : 7
    Format : UTF-8
    Codec ID : S_TEXT/UTF8
    Codec ID/Info : UTF-8 Plain Text
    Duration : 1 h 50 min
    Bit rate : 72 b/s
    Frame rate : 0.261 FPS
    Count of elements : 1732
    Stream size : 58.6 KiB (0%)
    Language : Czech (CZ)
    Default : No
    Forced : No

    Text #6
    ID : 8
    Format : UTF-8
    Codec ID : S_TEXT/UTF8
    Codec ID/Info : UTF-8 Plain Text
    Duration : 1 h 50 min
    Bit rate : 71 b/s
    Frame rate : 0.260 FPS
    Count of elements : 1722
    Stream size : 57.6 KiB (0%)
    Language : Danish (DK)
    Default : No
    Forced : No

    Text #7
    ID : 9
    Format : UTF-8
    Codec ID : S_TEXT/UTF8
    Codec ID/Info : UTF-8 Plain Text
    Duration : 1 h 49 min
    Bit rate : 77 b/s
    Frame rate : 0.259 FPS
    Count of elements : 1705
    Stream size : 62.0 KiB (0%)
    Language : German (DE)
    Default : No
    Forced : No

    Text #8
    ID : 10
    Format : UTF-8
    Codec ID : S_TEXT/UTF8
    Codec ID/Info : UTF-8 Plain Text
    Duration : 1 h 50 min
    Bit rate : 132 b/s
    Frame rate : 0.263 FPS
    Count of elements : 1742
    Stream size : 108 KiB (0%)
    Language : Greek (GR)
    Default : No
    Forced : No

    Text #9
    ID : 11
    Format : UTF-8
    Codec ID : S_TEXT/UTF8
    Codec ID/Info : UTF-8 Plain Text
    Duration : 1 h 50 min
    Bit rate : 73 b/s
    Frame rate : 0.262 FPS
    Count of elements : 1736
    Stream size : 59.7 KiB (0%)
    Title : Latin American
    Language : Spanish (Latin America)
    Default : No
    Forced : No

    Text #10
    ID : 12
    Format : UTF-8
    Codec ID : S_TEXT/UTF8
    Codec ID/Info : UTF-8 Plain Text
    Duration : 1 h 50 min
    Bit rate : 72 b/s
    Frame rate : 0.261 FPS
    Count of elements : 1734
    Stream size : 58.8 KiB (0%)
    Language : Spanish (ES)
    Default : No
    Forced : No

    Text #11
    ID : 13
    Format : UTF-8
    Codec ID : S_TEXT/UTF8
    Codec ID/Info : UTF-8 Plain Text
    Duration : 1 h 50 min
    Bit rate : 72 b/s
    Frame rate : 0.262 FPS
    Count of elements : 1736
    Stream size : 58.8 KiB (0%)
    Title : European
    Language : Basque (ES)
    Default : No
    Forced : No

    Text #12
    ID : 14
    Format : UTF-8
    Codec ID : S_TEXT/UTF8
    Codec ID/Info : UTF-8 Plain Text
    Duration : 1 h 50 min
    Bit rate : 80 b/s
    Frame rate : 0.259 FPS
    Count of elements : 1718
    Stream size : 65.2 KiB (0%)
    Language : Finnish (FI)
    Default : No
    Forced : No

    Text #13
    ID : 15
    Format : UTF-8
    Codec ID : S_TEXT/UTF8
    Codec ID/Info : UTF-8 Plain Text
    Duration : 1 h 50 min
    Bit rate : 80 b/s
    Frame rate : 0.259 FPS
    Count of elements : 1718
    Stream size : 65.2 KiB (0%)
    Language : fil (PH)
    Default : No
    Forced : No

    Text #14
    ID : 16
    Format : UTF-8
    Codec ID : S_TEXT/UTF8
    Codec ID/Info : UTF-8 Plain Text
    Duration : 1 h 50 min
    Bit rate : 72 b/s
    Frame rate : 0.260 FPS
    Count of elements : 1728
    Stream size : 58.4 KiB (0%)
    Title : Canadian
    Language : French (CA)
    Default : No
    Forced : No

    Text #15
    ID : 17
    Format : UTF-8
    Codec ID : S_TEXT/UTF8
    Codec ID/Info : UTF-8 Plain Text
    Duration : 1 h 50 min
    Bit rate : 76 b/s
    Frame rate : 0.261 FPS
    Count of elements : 1730
    Stream size : 61.6 KiB (0%)
    Language : French (FR)
    Default : No
    Forced : No

    Text #16
    ID : 18
    Format : UTF-8
    Codec ID : S_TEXT/UTF8
    Codec ID/Info : UTF-8 Plain Text
    Duration : 1 h 50 min
    Bit rate : 66 b/s
    Frame rate : 0.261 FPS
    Count of elements : 1732
    Stream size : 54.2 KiB (0%)
    Title : European
    Language : Galician (ES)
    Default : No
    Forced : No

    Text #17
    ID : 19
    Format : UTF-8
    Codec ID : S_TEXT/UTF8
    Codec ID/Info : UTF-8 Plain Text
    Duration : 1 h 50 min
    Bit rate : 120 b/s
    Frame rate : 0.264 FPS
    Count of elements : 1750
    Stream size : 97.6 KiB (0%)
    Language : Hebrew (IL)
    Default : No
    Forced : No

    Text #18
    ID : 20
    Format : UTF-8
    Codec ID : S_TEXT/UTF8
    Codec ID/Info : UTF-8 Plain Text
    Duration : 1 h 50 min
    Bit rate : 189 b/s
    Frame rate : 0.264 FPS
    Count of elements : 1749
    Stream size : 154 KiB (0%)
    Language : Hindi (IN)
    Default : No
    Forced : No

    Text #19
    ID : 21
    Format : UTF-8
    Codec ID : S_TEXT/UTF8
    Codec ID/Info : UTF-8 Plain Text
    Duration : 1 h 50 min
    Bit rate : 79 b/s
    Frame rate : 0.261 FPS
    Count of elements : 1734
    Stream size : 64.5 KiB (0%)
    Language : Hungarian (HU)
    Default : No
    Forced : No

    Text #20
    ID : 22
    Format : UTF-8
    Codec ID : S_TEXT/UTF8
    Codec ID/Info : UTF-8 Plain Text
    Duration : 1 h 50 min
    Bit rate : 73 b/s
    Frame rate : 0.262 FPS
    Count of elements : 1736
    Stream size : 59.2 KiB (0%)
    Language : Indonesian (ID)
    Default : No
    Forced : No

    Text #21
    ID : 23
    Format : UTF-8
    Codec ID : S_TEXT/UTF8
    Codec ID/Info : UTF-8 Plain Text
    Duration : 1 h 49 min
    Bit rate : 74 b/s
    Frame rate : 0.261 FPS
    Count of elements : 1720
    Stream size : 60.2 KiB (0%)
    Language : Italian (IT)
    Default : No
    Forced : No

    Text #22
    ID : 24
    Format : UTF-8
    Codec ID : S_TEXT/UTF8
    Codec ID/Info : UTF-8 Plain Text
    Duration : 1 h 50 min
    Bit rate : 64 b/s
    Frame rate : 0.241 FPS
    Count of elements : 1595
    Stream size : 51.8 KiB (0%)
    Language : Japanese (JP)
    Default : No
    Forced : No

    Text #23
    ID : 25
    Format : UTF-8
    Codec ID : S_TEXT/UTF8
    Codec ID/Info : UTF-8 Plain Text
    Duration : 1 h 50 min
    Bit rate : 192 b/s
    Frame rate : 0.264 FPS
    Count of elements : 1751
    Stream size : 156 KiB (0%)
    Language : Kannada (IN)
    Default : No
    Forced : No

    Text #24
    ID : 26
    Format : UTF-8
    Codec ID : S_TEXT/UTF8
    Codec ID/Info : UTF-8 Plain Text
    Duration : 1 h 50 min
    Bit rate : 71 b/s
    Frame rate : 0.261 FPS
    Count of elements : 1733
    Stream size : 57.7 KiB (0%)
    Language : Korean (KR)
    Default : No
    Forced : No

    Text #25
    ID : 27
    Format : UTF-8
    Codec ID : S_TEXT/UTF8
    Codec ID/Info : UTF-8 Plain Text
    Duration : 1 h 50 min
    Bit rate : 230 b/s
    Frame rate : 0.264 FPS
    Count of elements : 1751
    Stream size : 187 KiB (0%)
    Language : Malayalam (IN)
    Default : No
    Forced : No

    Text #26
    ID : 28
    Format : UTF-8
    Codec ID : S_TEXT/UTF8
    Codec ID/Info : UTF-8 Plain Text
    Duration : 1 h 50 min
    Bit rate : 74 b/s
    Frame rate : 0.261 FPS
    Count of elements : 1732
    Stream size : 60.1 KiB (0%)
    Language : Malay (MY)
    Default : No
    Forced : No

    Text #27
    ID : 29
    Format : UTF-8
    Codec ID : S_TEXT/UTF8
    Codec ID/Info : UTF-8 Plain Text
    Duration : 1 h 50 min
    Bit rate : 72 b/s
    Frame rate : 0.260 FPS
    Count of elements : 1726
    Stream size : 59.0 KiB (0%)
    Language : Norwegian Bokmal (NO)
    Default : No
    Forced : No

    Text #28
    ID : 30
    Format : UTF-8
    Codec ID : S_TEXT/UTF8
    Codec ID/Info : UTF-8 Plain Text
    Duration : 1 h 50 min
    Bit rate : 73 b/s
    Frame rate : 0.260 FPS
    Count of elements : 1724
    Stream size : 59.8 KiB (0%)
    Language : Dutch (NL)
    Default : No
    Forced : No

    Text #29
    ID : 31
    Format : UTF-8
    Codec ID : S_TEXT/UTF8
    Codec ID/Info : UTF-8 Plain Text
    Duration : 1 h 50 min
    Bit rate : 71 b/s
    Frame rate : 0.261 FPS
    Count of elements : 1732
    Stream size : 58.1 KiB (0%)
    Language : Polish (PL)
    Default : No
    Forced : No

    Text #30
    ID : 32
    Format : UTF-8
    Codec ID : S_TEXT/UTF8
    Codec ID/Info : UTF-8 Plain Text
    Duration : 1 h 50 min
    Bit rate : 73 b/s
    Frame rate : 0.261 FPS
    Count of elements : 1731
    Stream size : 59.4 KiB (0%)
    Title : Brazilian
    Language : Portuguese (BR)
    Default : No
    Forced : No

    Text #31
    ID : 33
    Format : UTF-8
    Codec ID : S_TEXT/UTF8
    Codec ID/Info : UTF-8 Plain Text
    Duration : 1 h 50 min
    Bit rate : 77 b/s
    Frame rate : 0.261 FPS
    Count of elements : 1734
    Stream size : 63.0 KiB (0%)
    Language : Portuguese (PT)
    Default : No
    Forced : No

    Text #32
    ID : 34
    Format : UTF-8
    Codec ID : S_TEXT/UTF8
    Codec ID/Info : UTF-8 Plain Text
    Duration : 1 h 50 min
    Bit rate : 80 b/s
    Frame rate : 0.261 FPS
    Count of elements : 1731
    Stream size : 65.3 KiB (0%)
    Language : Romanian (RO)
    Default : No
    Forced : No

    Text #33
    ID : 35
    Format : UTF-8
    Codec ID : S_TEXT/UTF8
    Codec ID/Info : UTF-8 Plain Text
    Duration : 1 h 50 min
    Bit rate : 125 b/s
    Frame rate : 0.263 FPS
    Count of elements : 1746
    Stream size : 102 KiB (0%)
    Language : Russian (RU)
    Default : No
    Forced : No

    Text #34
    ID : 36
    Format : UTF-8
    Codec ID : S_TEXT/UTF8
    Codec ID/Info : UTF-8 Plain Text
    Duration : 1 h 50 min
    Bit rate : 75 b/s
    Frame rate : 0.261 FPS
    Count of elements : 1730
    Stream size : 60.8 KiB (0%)
    Language : Swedish (SE)
    Default : No
    Forced : No

    Text #35
    ID : 37
    Format : UTF-8
    Codec ID : S_TEXT/UTF8
    Codec ID/Info : UTF-8 Plain Text
    Duration : 1 h 50 min
    Bit rate : 201 b/s
    Frame rate : 0.264 FPS
    Count of elements : 1751
    Stream size : 163 KiB (0%)
    Language : Tamil (IN)
    Default : No
    Forced : No

    Text #36
    ID : 38
    Format : UTF-8
    Codec ID : S_TEXT/UTF8
    Codec ID/Info : UTF-8 Plain Text
    Duration : 1 h 50 min
    Bit rate : 197 b/s
    Frame rate : 0.264 FPS
    Count of elements : 1750
    Stream size : 160 KiB (0%)
    Language : Telugu (IN)
    Default : No
    Forced : No

    Text #37
    ID : 39
    Format : UTF-8
    Codec ID : S_TEXT/UTF8
    Codec ID/Info : UTF-8 Plain Text
    Duration : 1 h 50 min
    Bit rate : 191 b/s
    Frame rate : 0.264 FPS
    Count of elements : 1752
    Stream size : 155 KiB (0%)
    Language : Thai (TH)
    Default : No
    Forced : No

    Text #38
    ID : 40
    Format : UTF-8
    Codec ID : S_TEXT/UTF8
    Codec ID/Info : UTF-8 Plain Text
    Duration : 1 h 50 min
    Bit rate : 74 b/s
    Frame rate : 0.261 FPS
    Count of elements : 1734
    Stream size : 60.1 KiB (0%)
    Language : Turkish (TR)
    Default : No
    Forced : No

    Text #39
    ID : 41
    Format : UTF-8
    Codec ID : S_TEXT/UTF8
    Codec ID/Info : UTF-8 Plain Text
    Duration : 1 h 50 min
    Bit rate : 119 b/s
    Frame rate : 0.263 FPS
    Count of elements : 1744
    Stream size : 96.5 KiB (0%)
    Title : Ukraine
    Language : Ukrainian (UA)
    Default : No
    Forced : No

    Text #40
    ID : 42
    Format : UTF-8
    Codec ID : S_TEXT/UTF8
    Codec ID/Info : UTF-8 Plain Text
    Duration : 1 h 50 min
    Bit rate : 96 b/s
    Frame rate : 0.261 FPS
    Count of elements : 1731
    Stream size : 78.2 KiB (0%)
    Title : Vietnam
    Language : Vietnamese (VN)
    Default : No
    Forced : No

    Text #41
    ID : 43
    Format : UTF-8
    Codec ID : S_TEXT/UTF8
    Codec ID/Info : UTF-8 Plain Text
    Duration : 1 h 50 min
    Bit rate : 75 b/s
    Frame rate : 0.264 FPS
    Count of elements : 1751
    Stream size : 61.2 KiB (0%)
    Title : Simplified
    Language : Chinese (Simplied)
    Default : No
    Forced : No

    Text #42
    ID : 44
    Format : UTF-8
    Codec ID : S_TEXT/UTF8
    Codec ID/Info : UTF-8 Plain Text
    Duration : 1 h 50 min
    Bit rate : 67 b/s
    Frame rate : 0.264 FPS
    Count of elements : 1751
    Stream size : 55.0 KiB (0%)
    Title : Traditional
    Language : Chinese (Traditional)
    Default : No
    Forced : No



    《气垫传奇》4k电影 · 网盘/云盘/BT 下载  Cloud storage / Cloud disk / BT download
  • 下载本版资源三步骤
    1、在《4K电影列表》找到并打开电影下载页,点击下载框按钮或复制磁力链,将BT种子下载到电脑中。
    2、电脑安装《BT下载软件》,免费的推荐使用《UTorrent》下载,收费的推荐使用《115网盘》下载(速度又快又稳).
    3、用BT下载软件,打开BT种子、或将磁力链复制粘贴到BT软件中即可下载。


    下载速度慢怎么办
    1、正常情况使用《UTorrent》跟着网站发布资源节奏下载速度很快,可以达到宽带最大速度(电信)
    2、推荐使用《115网盘》下载速度又快又稳定,请勿使用迅雷下载;
    3、下载慢是有多方面原因,即依赖种子的热度、也要求是电信宽带(非移动/联通),同时选择对的下载软件和软件设置方法。
    4、使用BT协议下载没有速度,请更新《Trackers服务器》能够增加在线用户(越多越好),该方法使用《UTorrent》下载效果显著。
    更多下载问题参考: 4K电影下载新手学院>>

    多个种子/电影版本区别
    蓝光原盘BDMV
    俗称4K蓝光原盘,也就是从4K UHD蓝光碟中提取出来的源文件,由多个m2ts文件组成,与正版盘完全一致,且包含了光盘所有内容 (影片花絮、字幕、导航菜单、多语言多音轨、HDR 信息)等等,文件体积大,一部电影约有60GB+。此版本资源一般以「BDMV 文件夹」或「BDISO」 (iso) 格式发布;该版本可以用刻录机成带导航的光盘效果。

    DIY蓝光原盘BDMV
    经资源制作组基于蓝光原盘BDMV版本进行第二次DIY的版本,将片头AE特效、画面HDR调色、封装国语音轨、封装中文简体/繁体/英文等多语言字幕,更精彩的是是特效字幕(将电影画面中某些细节翻译成中文字幕)。

    蓝光BD-REMUX
    俗称REMUX,可以视为「音画质无损的精简版」"4K原盘",它其实就是将原盘里多余的一些音轨、花絮、菜单、字幕等东西移除或精简,仅保留主要的视频、主要音轨和部分语言字幕,然后再封装成「单个文件」的 .mkv 格式而来,其音质画质与BDMV蓝光原盘一致,但文件体积上能大幅缩减且成单个文件,在电脑上播放/管理/电视播放/播放器播放和分享起来也更方便。适合追求原盘音画质、不重视花絮周边内容、又希望稍微节省点硬盘空间的朋友。

    WEB-DL/WEBRip/流媒体版本
    WEB-DL 或 WEBRip 格式的影片主要来自 、Amazon Prime Video、Netflix、Hulu、YouTube 等「在线网络高清片源」。尽管这些服务提供了4K分辨率 (部分含 HDR) 的片源,但它们为了在线观看的流畅性,都会将视频画质进行较大幅度「有损压缩」。 WEB-DL 是 Web Download 的意思,指通过技术手段「直接下载」回来的在线视频 WEBRip 很多时候则是通过"屏幕转录"等方式二次录制,会造成多一次的画质损失。



    《气垫传奇》4k电影 · 网盘/云盘/BT 下载  Cloud storage / Cloud disk / BT download
气垫 / AIR Jordan/气垫传奇4K AIR.2023.2160p.AMZN.WEB-DL.x265.10bit.HDR10Plus.DDP5.1.x265-4k电影下载

气垫传奇4K AIR.2023.2160p.AMZN.WEB-DL.x265.10bit.HDR10Plus.DDP5.1.x265【简繁中字】【HDR10Plus 12.09GB】

气垫传奇4K BAIR.2023.2160p.AMZN.WEB-DL.x265.10bit.HDR10Plus.DDP5.1.x265-FLUX- 4KSJ.torrent ( 15.75 KB )


气垫传奇4K AIR.2023.2160p.AMZN.WEB-DL.x265.8bit.SDR.DDP5.1.Atmos【简繁中字】【SDR 12.17 GB】

AIR.2023.2160p.AMZN.WEB-DL.x265.8bit.SDR.DDP5.1.Atmos-NOGRP.torrent ( 15.58 KB )


气垫传奇4K AIR.2023.2160p.AMZN.WEB-DL.DDP5.1.Atmos.DV.MKV.x265-FLUX【简繁中字】【杜比视界 16.21GB】

AIR.2023.2160p.AMZN.WEB-DL.DDP5.1.Atmos.DV.MKV.x265-FLUX.torrent ( 20.61 KB )



最新回复
还没人回复...
登录 发布 快速回复 返回顶部 返回列表