开启辅助访问
 找回密码
 立即注册
月球奇幻旅 豆瓣评分: 无评分 年份: 2023年 片长: 105 分钟 地区: 美国  类型: 剧情 科幻 冒险  格式: 4K HDR  音轨: Dolby TrueHD 5.1 Dolby Atmos  导演: 凯尔·帕特里克·奥瓦内兹 主演: 麦肯娜·格瑞丝 / 布雷迪·诺恩 / 比利·巴瑞特 / Piper Rubio / Isaiah Russell-Bailey
预告片欣赏
取消
简介 :

  肖恩·利维将再次合作老搭档二十世纪福斯,执导新片[陨石坑](Crater,暂译),利维也将约翰·J·格里芬执笔的原创剧本进行改编。故事被描述为科幻版的[ 伴我同行 ],讲述在月球殖民地长大的男孩,和三个小伙伴共同前往一处神秘陨石坑探秘,不料却发生意外。影片剧本曾经入选2015年“好莱坞剧本黑名单”。

  • 电影下载
  • 资源INFO
  • 下载说明
  • 《月球奇幻旅》4k电影 · 网盘/云盘/BT 下载  Cloud storage / Cloud disk / BT download

  • 《月球奇幻旅》电影INFO  Video INFO
    Video
    ID : 1
    Format : HEVC
    Format/Info : High Efficiency Video Coding
    Format profile : Main 10@L5@High
    HDR format : Dolby Vision, Version 1.0, dvhe.08.06, BL+RPU, HDR10 compatible / SMPTE ST 2086, HDR10 compatible
    Codec ID : V_MPEGH/ISO/HEVC
    Duration : 1 h 44 min
    Bit rate : 13.4 Mb/s
    Width : 3 840 pixels
    Height : 2 160 pixels
    Display aspect ratio : 16:9
    Frame rate mode : Constant
    Frame rate : 24.000 FPS
    Color space : YUV
    Chroma subsampling : 4:2:0
    Bit depth : 10 bits
    Bits/(Pixel*Frame) : 0.067
    Stream size : 9.74 GiB (98%)
    Language : English
    Default : Yes
    Forced : No
    Color range : Limited
    Color primaries : BT.2020
    Transfer characteristics : PQ
    Matrix coefficients : BT.2020 non-constant
    Mastering display color primaries : BT.2020
    Mastering display luminance : min: 0.0001 cd/m2, max: 1000 cd/m2

    Audio
    ID : 2
    Format : E-AC-3
    Format/Info : Enhanced AC-3
    Commercial name : Dolby Digital Plus
    Codec ID : A_EAC3
    Duration : 1 h 44 min
    Bit rate mode : Constant
    Bit rate : 256 kb/s
    Channel(s) : 6 channels
    Channel layout : L R C LFE Ls Rs
    Sampling rate : 48.0 kHz
    Frame rate : 31.250 FPS (1536 SPF)
    Compression mode : Lossy
    Stream size : 190 MiB (2%)
    Language : English
    Service kind : Complete Main
    Default : Yes
    Forced : No

    Text #1
    ID : 3
    Format : UTF-8
    Codec ID : S_TEXT/UTF8
    Codec ID/Info : UTF-8 Plain Text
    Duration : 1 h 34 min
    Bit rate : 75 b/s
    Frame rate : 0.286 FPS
    Count of elements : 1618
    Stream size : 52.1 KiB (0%)
    Language : English
    Default : No
    Forced : No

    Text #2
    ID : 4
    Format : UTF-8
    Codec ID : S_TEXT/UTF8
    Codec ID/Info : UTF-8 Plain Text
    Duration : 1 h 42 min
    Bit rate : 47 b/s
    Frame rate : 0.216 FPS
    Count of elements : 1331
    Stream size : 35.5 KiB (0%)
    Language : Czech
    Default : No
    Forced : No

    Text #3
    ID : 5
    Format : UTF-8
    Codec ID : S_TEXT/UTF8
    Codec ID/Info : UTF-8 Plain Text
    Duration : 1 h 42 min
    Bit rate : 50 b/s
    Frame rate : 0.184 FPS
    Count of elements : 1130
    Stream size : 37.7 KiB (0%)
    Language : Danish
    Default : No
    Forced : No

    Text #4
    ID : 6
    Format : UTF-8
    Codec ID : S_TEXT/UTF8
    Codec ID/Info : UTF-8 Plain Text
    Duration : 1 h 42 min
    Bit rate : 48 b/s
    Frame rate : 0.209 FPS
    Count of elements : 1280
    Stream size : 36.4 KiB (0%)
    Language : German
    Default : No
    Forced : No

    Text #5
    ID : 7
    Format : UTF-8
    Codec ID : S_TEXT/UTF8
    Codec ID/Info : UTF-8 Plain Text
    Duration : 1 h 42 min
    Bit rate : 88 b/s
    Frame rate : 0.204 FPS
    Count of elements : 1261
    Stream size : 66.5 KiB (0%)
    Language : Greek
    Default : No
    Forced : No

    Text #6
    ID : 8
    Format : UTF-8
    Codec ID : S_TEXT/UTF8
    Codec ID/Info : UTF-8 Plain Text
    Duration : 1 h 42 min
    Bit rate : 50 b/s
    Frame rate : 0.205 FPS
    Count of elements : 1267
    Stream size : 37.9 KiB (0%)
    Language : Spanish
    Default : No
    Forced : No

    Text #7
    ID : 9
    Format : UTF-8
    Codec ID : S_TEXT/UTF8
    Codec ID/Info : UTF-8 Plain Text
    Duration : 1 h 42 min
    Bit rate : 48 b/s
    Frame rate : 0.184 FPS
    Count of elements : 1134
    Stream size : 36.7 KiB (0%)
    Title : Latin American
    Language : Spanish
    Default : No
    Forced : No

    Text #8
    ID : 10
    Format : UTF-8
    Codec ID : S_TEXT/UTF8
    Codec ID/Info : UTF-8 Plain Text
    Duration : 1 h 42 min
    Bit rate : 51 b/s
    Frame rate : 0.218 FPS
    Count of elements : 1336
    Stream size : 38.3 KiB (0%)
    Language : Finnish
    Default : No
    Forced : No

    Text #9
    ID : 11
    Format : UTF-8
    Codec ID : S_TEXT/UTF8
    Codec ID/Info : UTF-8 Plain Text
    Duration : 1 h 42 min
    Bit rate : 50 b/s
    Frame rate : 0.214 FPS
    Count of elements : 1320
    Stream size : 38.0 KiB (0%)
    Language : French
    Default : No
    Forced : No

    Text #10
    ID : 12
    Format : UTF-8
    Codec ID : S_TEXT/UTF8
    Codec ID/Info : UTF-8 Plain Text
    Duration : 1 h 42 min
    Bit rate : 54 b/s
    Frame rate : 0.207 FPS
    Count of elements : 1276
    Stream size : 40.9 KiB (0%)
    Language : Hungarian
    Default : No
    Forced : No

    Text #11
    ID : 13
    Format : UTF-8
    Codec ID : S_TEXT/UTF8
    Codec ID/Info : UTF-8 Plain Text
    Duration : 1 h 42 min
    Bit rate : 50 b/s
    Frame rate : 0.212 FPS
    Count of elements : 1298
    Stream size : 37.5 KiB (0%)
    Language : Italian
    Default : No
    Forced : No

    Text #12
    ID : 14
    Format : UTF-8
    Codec ID : S_TEXT/UTF8
    Codec ID/Info : UTF-8 Plain Text
    Duration : 1 h 42 min
    Bit rate : 42 b/s
    Frame rate : 0.217 FPS
    Count of elements : 1339
    Stream size : 31.9 KiB (0%)
    Language : Japanese
    Default : No
    Forced : No

    Text #13
    ID : 15
    Format : UTF-8
    Codec ID : S_TEXT/UTF8
    Codec ID/Info : UTF-8 Plain Text
    Duration : 1 h 42 min
    Bit rate : 55 b/s
    Frame rate : 0.217 FPS
    Count of elements : 1341
    Stream size : 41.9 KiB (0%)
    Language : Korean
    Default : No
    Forced : No

    Text #14
    ID : 16
    Format : UTF-8
    Codec ID : S_TEXT/UTF8
    Codec ID/Info : UTF-8 Plain Text
    Duration : 1 h 42 min
    Bit rate : 49 b/s
    Frame rate : 0.163 FPS
    Count of elements : 1001
    Stream size : 36.8 KiB (0%)
    Language : Dutch
    Default : No
    Forced : No

    Text #15
    ID : 17
    Format : UTF-8
    Codec ID : S_TEXT/UTF8
    Codec ID/Info : UTF-8 Plain Text
    Duration : 1 h 42 min
    Bit rate : 51 b/s
    Frame rate : 0.156 FPS
    Count of elements : 959
    Stream size : 38.4 KiB (0%)
    Language : Norwegian
    Default : No
    Forced : No

    Text #16
    ID : 18
    Format : UTF-8
    Codec ID : S_TEXT/UTF8
    Codec ID/Info : UTF-8 Plain Text
    Duration : 1 h 42 min
    Bit rate : 45 b/s
    Frame rate : 0.203 FPS
    Count of elements : 1253
    Stream size : 34.6 KiB (0%)
    Language : Polish
    Default : No
    Forced : No

    Text #17
    ID : 19
    Format : UTF-8
    Codec ID : S_TEXT/UTF8
    Codec ID/Info : UTF-8 Plain Text
    Duration : 1 h 42 min
    Bit rate : 52 b/s
    Frame rate : 0.216 FPS
    Count of elements : 1331
    Stream size : 39.8 KiB (0%)
    Language : Portuguese
    Default : No
    Forced : No

    Text #18
    ID : 20
    Format : UTF-8
    Codec ID : S_TEXT/UTF8
    Codec ID/Info : UTF-8 Plain Text
    Duration : 1 h 42 min
    Bit rate : 51 b/s
    Frame rate : 0.207 FPS
    Count of elements : 1277
    Stream size : 38.6 KiB (0%)
    Title : Brazilian
    Language : Portuguese
    Default : No
    Forced : No

    Text #19
    ID : 21
    Format : UTF-8
    Codec ID : S_TEXT/UTF8
    Codec ID/Info : UTF-8 Plain Text
    Duration : 1 h 42 min
    Bit rate : 51 b/s
    Frame rate : 0.178 FPS
    Count of elements : 1090
    Stream size : 38.2 KiB (0%)
    Language : Romanian
    Default : No
    Forced : No

    Text #20
    ID : 22
    Format : UTF-8
    Codec ID : S_TEXT/UTF8
    Codec ID/Info : UTF-8 Plain Text
    Duration : 1 h 42 min
    Bit rate : 48 b/s
    Frame rate : 0.216 FPS
    Count of elements : 1335
    Stream size : 36.9 KiB (0%)
    Language : Slovak
    Default : No
    Forced : No

    Text #21
    ID : 23
    Format : UTF-8
    Codec ID : S_TEXT/UTF8
    Codec ID/Info : UTF-8 Plain Text
    Duration : 1 h 42 min
    Bit rate : 52 b/s
    Frame rate : 0.217 FPS
    Count of elements : 1330
    Stream size : 39.7 KiB (0%)
    Language : Swedish
    Default : No
    Forced : No

    Text #22
    ID : 24
    Format : UTF-8
    Codec ID : S_TEXT/UTF8
    Codec ID/Info : UTF-8 Plain Text
    Duration : 1 h 42 min
    Bit rate : 55 b/s
    Frame rate : 0.215 FPS
    Count of elements : 1325
    Stream size : 41.9 KiB (0%)
    Language : Turkish
    Default : No
    Forced : No

    Text #23
    ID : 25
    Format : UTF-8
    Codec ID : S_TEXT/UTF8
    Codec ID/Info : UTF-8 Plain Text
    Duration : 1 h 42 min
    Bit rate : 49 b/s
    Frame rate : 0.218 FPS
    Count of elements : 1343
    Stream size : 37.2 KiB (0%)
    Title : Traditional
    Language : Chinese
    Default : No
    Forced : No

    Menu
    01:37:47.667 : en:Credits



    《月球奇幻旅》4k电影 · 网盘/云盘/BT 下载  Cloud storage / Cloud disk / BT download
  • 下载本版资源三步骤
    1、在《4K电影列表》找到并打开电影下载页,点击下载框按钮或复制磁力链,将BT种子下载到电脑中。
    2、电脑安装《BT下载软件》,免费的推荐使用《UTorrent》下载,收费的推荐使用《115网盘》下载(速度又快又稳).
    3、用BT下载软件,打开BT种子、或将磁力链复制粘贴到BT软件中即可下载。


    下载速度慢怎么办
    1、正常情况使用《UTorrent》跟着网站发布资源节奏下载速度很快,可以达到宽带最大速度(电信)
    2、推荐使用《115网盘》下载速度又快又稳定,请勿使用迅雷下载;
    3、下载慢是有多方面原因,即依赖种子的热度、也要求是电信宽带(非移动/联通),同时选择对的下载软件和软件设置方法。
    4、使用BT协议下载没有速度,请更新《Trackers服务器》能够增加在线用户(越多越好),该方法使用《UTorrent》下载效果显著。
    更多下载问题参考: 4K电影下载新手学院>>

    多个种子/电影版本区别
    蓝光原盘BDMV
    俗称4K蓝光原盘,也就是从4K UHD蓝光碟中提取出来的源文件,由多个m2ts文件组成,与正版盘完全一致,且包含了光盘所有内容 (影片花絮、字幕、导航菜单、多语言多音轨、HDR 信息)等等,文件体积大,一部电影约有60GB+。此版本资源一般以「BDMV 文件夹」或「BDISO」 (iso) 格式发布;该版本可以用刻录机成带导航的光盘效果。

    DIY蓝光原盘BDMV
    经资源制作组基于蓝光原盘BDMV版本进行第二次DIY的版本,将片头AE特效、画面HDR调色、封装国语音轨、封装中文简体/繁体/英文等多语言字幕,更精彩的是是特效字幕(将电影画面中某些细节翻译成中文字幕)。

    蓝光BD-REMUX
    俗称REMUX,可以视为「音画质无损的精简版」"4K原盘",它其实就是将原盘里多余的一些音轨、花絮、菜单、字幕等东西移除或精简,仅保留主要的视频、主要音轨和部分语言字幕,然后再封装成「单个文件」的 .mkv 格式而来,其音质画质与BDMV蓝光原盘一致,但文件体积上能大幅缩减且成单个文件,在电脑上播放/管理/电视播放/播放器播放和分享起来也更方便。适合追求原盘音画质、不重视花絮周边内容、又希望稍微节省点硬盘空间的朋友。

    WEB-DL/WEBRip/流媒体版本
    WEB-DL 或 WEBRip 格式的影片主要来自 、Amazon Prime Video、Netflix、Hulu、YouTube 等「在线网络高清片源」。尽管这些服务提供了4K分辨率 (部分含 HDR) 的片源,但它们为了在线观看的流畅性,都会将视频画质进行较大幅度「有损压缩」。 WEB-DL 是 Web Download 的意思,指通过技术手段「直接下载」回来的在线视频 WEBRip 很多时候则是通过"屏幕转录"等方式二次录制,会造成多一次的画质损失。



    《月球奇幻旅》4k电影 · 网盘/云盘/BT 下载  Cloud storage / Cloud disk / BT download
陨石坑/月球奇幻旅4K Crater.2023.2160p.DSNP.WEB-DL.x265.10bit.HDR.DDP5.1-4k电影下载

月球奇幻旅4K Crater.2023.2160p.DSNP.WEB-DL.x265.10bit.HDR.DDP5.1【简繁中字】【HDR 9.93 GB】

Crater.2023.2160p.DSNP.WEB-DL.x265.10bit.HDR.DDP5.1-CM.torrent ( 25.34 KB )


月球奇幻旅4K Crater.2023.2160p.DSNP.WEB-DL.DDP5.1.DV.MKV.x265【简繁中字】【杜比视界 11.42 GB】

Crater.2023.2160p.DSNP.WEB-DL.DDP5.1.DV.MKV.x265-CM.torrent ( 14.6 KB )


月球奇幻旅4K Crater.2023.2160p.DSNP.WEB-DL.DDP5.1.DV.MP4.x265【简繁中字】【杜比视界 11.42 GB】

Crater.2023.2160p.DSNP.WEB-DL.DDP5.1.DV.MP4.x265-DVSUX.torrent ( 14.62 KB )



最新回复
还没人回复...
登录 发布 快速回复 返回顶部 返回列表