开启辅助访问
 找回密码
 立即注册
谋杀疑案2 豆瓣评分: 5.8分 年份: 2023年 片长: 89 分钟 地区: 美国  类型: 喜剧 动作 爱情 犯罪 悬疑  格式: 4K HDR  音轨: Dolby TrueHD 5.1 Dolby Atmos  导演: 杰里米·加尔利 主演: 亚当·桑德勒 / 詹妮弗·安妮斯顿 / 马克·斯特朗 / 梅拉尼·罗兰 / 朱迪·特纳-史密斯
预告片欣赏
取消
简介 :

  四年前,尼克(亚当·桑德勒 饰)与奥黛丽(詹妮弗·安妮斯顿 饰)生平第一次侦破离奇命案,如今他们全心投入私家侦探一行,生意却一直不见起色。当他们受邀参加印度王公好友(阿迪勒·阿赫塔尔 饰)在私人小岛举办的婚礼,麻烦却再度找上门:庆祝活动才开始,新郎就成为肉票,光鲜亮丽的宾客、亲友,甚至新娘本人,个个脱不了嫌疑。这件案子虽然危机四伏,尼克与奥黛丽却可能因此让侦探社起死回生,还能得偿夙愿,畅游花都。

  • 电影下载
  • 资源INFO
  • 下载说明
  • 《谋杀疑案2》4k电影 · 网盘/云盘/BT 下载  Cloud storage / Cloud disk / BT download

  • 《谋杀疑案2》电影INFO  Video INFO
    Video
    ID : 1
    Format : HEVC
    Format/Info : High Efficiency Video Coding
    Format profile : Main 10@L5@Main
    HDR format : Dolby Vision, Version 1.0, dvhe.08.06, BL+RPU, HDR10 compatible / SMPTE ST 2086, HDR10 compatible
    Codec ID : V_MPEGH/ISO/HEVC
    Duration : 1 h 28 min
    Bit rate : 11.8 Mb/s
    Width : 3 840 pixels
    Height : 2 160 pixels
    Display aspect ratio : 16:9
    Frame rate mode : Constant
    Frame rate : 24.000 FPS
    Color space : YUV
    Chroma subsampling : 4:2:0 (Type 2)
    Bit depth : 10 bits
    Bits/(Pixel*Frame) : 0.059
    Stream size : 7.33 GiB (94%)
    Language : English
    Default : Yes
    Forced : No
    Color range : Limited
    Color primaries : BT.2020
    Transfer characteristics : PQ
    Matrix coefficients : BT.2020 non-constant
    Mastering display color primaries : Display P3
    Mastering display luminance : min: 0.0001 cd/m2, max: 1000 cd/m2
    Maximum Content Light Level : 756 cd/m2
    Maximum Frame-Average Light Level : 353 cd/m2

    Audio
    ID : 2
    Format : E-AC-3 JOC
    Format/Info : Enhanced AC-3 with Joint Object Coding
    Commercial name : Dolby Digital Plus with Dolby Atmos
    Codec ID : A_EAC3
    Duration : 1 h 28 min
    Bit rate mode : Constant
    Bit rate : 768 kb/s
    Channel(s) : 6 channels
    Channel layout : L R C LFE Ls Rs
    Sampling rate : 48.0 kHz
    Frame rate : 31.250 FPS (1536 SPF)
    Compression mode : Lossy
    Stream size : 488 MiB (6%)
    Language : English
    Service kind : Complete Main
    Default : Yes
    Forced : No
    Complexity index : 16
    Number of dynamic objects : 15
    Bed channel count : 1 channel
    Bed channel configuration : LFE

    Text #1
    ID : 3
    Format : UTF-8
    Codec ID : S_TEXT/UTF8
    Codec ID/Info : UTF-8 Plain Text
    Duration : 1 h 18 min
    Bit rate : 96 b/s
    Frame rate : 0.339 FPS
    Count of elements : 1601
    Stream size : 55.5 KiB (0%)
    Language : English
    Default : No
    Forced : No

    Text #2
    ID : 4
    Format : UTF-8
    Codec ID : S_TEXT/UTF8
    Codec ID/Info : UTF-8 Plain Text
    Duration : 1 h 26 min
    Bit rate : 102 b/s
    Frame rate : 0.351 FPS
    Count of elements : 1832
    Stream size : 65.1 KiB (0%)
    Title : SDH
    Language : English
    Default : No
    Forced : No

    Text #3
    ID : 5
    Format : UTF-8
    Codec ID : S_TEXT/UTF8
    Codec ID/Info : UTF-8 Plain Text
    Duration : 1 h 28 min
    Bit rate : 132 b/s
    Frame rate : 0.285 FPS
    Count of elements : 1510
    Stream size : 85.8 KiB (0%)
    Language : Arabic
    Default : No
    Forced : No

    Text #4
    ID : 6
    Format : UTF-8
    Codec ID : S_TEXT/UTF8
    Codec ID/Info : UTF-8 Plain Text
    Duration : 1 h 28 min
    Bit rate : 74 b/s
    Frame rate : 0.279 FPS
    Count of elements : 1475
    Stream size : 47.8 KiB (0%)
    Language : Czech
    Default : No
    Forced : No

    Text #5
    ID : 7
    Format : UTF-8
    Codec ID : S_TEXT/UTF8
    Codec ID/Info : UTF-8 Plain Text
    Duration : 1 h 26 min
    Bit rate : 96 b/s
    Frame rate : 0.336 FPS
    Count of elements : 1752
    Stream size : 61.6 KiB (0%)
    Title : SDH
    Language : Czech
    Default : No
    Forced : No

    Text #6
    ID : 8
    Format : UTF-8
    Codec ID : S_TEXT/UTF8
    Codec ID/Info : UTF-8 Plain Text
    Duration : 1 h 28 min
    Bit rate : 68 b/s
    Frame rate : 0.266 FPS
    Count of elements : 1405
    Stream size : 44.3 KiB (0%)
    Language : Danish
    Default : No
    Forced : No

    Text #7
    ID : 9
    Format : UTF-8
    Codec ID : S_TEXT/UTF8
    Codec ID/Info : UTF-8 Plain Text
    Duration : 1 h 28 min
    Bit rate : 69 b/s
    Frame rate : 0.274 FPS
    Count of elements : 1451
    Stream size : 44.9 KiB (0%)
    Language : German
    Default : No
    Forced : No

    Text #8
    ID : 10
    Format : UTF-8
    Codec ID : S_TEXT/UTF8
    Codec ID/Info : UTF-8 Plain Text
    Duration : 1 h 26 min
    Bit rate : 99 b/s
    Frame rate : 0.316 FPS
    Count of elements : 1650
    Stream size : 63.3 KiB (0%)
    Title : SDH
    Language : German
    Default : No
    Forced : No

    Text #9
    ID : 11
    Format : UTF-8
    Codec ID : S_TEXT/UTF8
    Codec ID/Info : UTF-8 Plain Text
    Duration : 1 h 28 min
    Bit rate : 122 b/s
    Frame rate : 0.274 FPS
    Count of elements : 1448
    Stream size : 79.2 KiB (0%)
    Language : Greek
    Default : No
    Forced : No

    Text #10
    ID : 12
    Format : UTF-8
    Codec ID : S_TEXT/UTF8
    Codec ID/Info : UTF-8 Plain Text
    Duration : 1 h 28 min
    Bit rate : 70 b/s
    Frame rate : 0.280 FPS
    Count of elements : 1483
    Stream size : 45.5 KiB (0%)
    Title : Latin American
    Language : Spanish (Latin America)
    Default : No
    Forced : No

    Text #11
    ID : 13
    Format : UTF-8
    Codec ID : S_TEXT/UTF8
    Codec ID/Info : UTF-8 Plain Text
    Duration : 1 h 18 min
    Bit rate : 98 b/s
    Frame rate : 0.350 FPS
    Count of elements : 1653
    Stream size : 56.9 KiB (0%)
    Title : Latin American (SDH)
    Language : Spanish (Latin America)
    Default : No
    Forced : No

    Text #12
    ID : 14
    Format : UTF-8
    Codec ID : S_TEXT/UTF8
    Codec ID/Info : UTF-8 Plain Text
    Duration : 1 h 28 min
    Bit rate : 73 b/s
    Frame rate : 0.279 FPS
    Count of elements : 1476
    Stream size : 47.7 KiB (0%)
    Title : European
    Language : Spanish (ES)
    Default : No
    Forced : No

    Text #13
    ID : 15
    Format : UTF-8
    Codec ID : S_TEXT/UTF8
    Codec ID/Info : UTF-8 Plain Text
    Duration : 1 h 28 min
    Bit rate : 95 b/s
    Frame rate : 0.333 FPS
    Count of elements : 1763
    Stream size : 61.4 KiB (0%)
    Title : European (SDH)
    Language : Spanish (ES)
    Default : No
    Forced : No

    Text #14
    ID : 16
    Format : UTF-8
    Codec ID : S_TEXT/UTF8
    Codec ID/Info : UTF-8 Plain Text
    Duration : 1 h 28 min
    Bit rate : 66 b/s
    Frame rate : 0.255 FPS
    Count of elements : 1349
    Stream size : 43.2 KiB (0%)
    Language : Finnish
    Default : No
    Forced : No

    Text #15
    ID : 17
    Format : UTF-8
    Codec ID : S_TEXT/UTF8
    Codec ID/Info : UTF-8 Plain Text
    Duration : 1 h 28 min
    Bit rate : 78 b/s
    Frame rate : 0.269 FPS
    Count of elements : 1422
    Stream size : 50.4 KiB (0%)
    Language : fil
    Default : No
    Forced : No

    Text #16
    ID : 18
    Format : UTF-8
    Codec ID : S_TEXT/UTF8
    Codec ID/Info : UTF-8 Plain Text
    Duration : 1 h 28 min
    Bit rate : 71 b/s
    Frame rate : 0.271 FPS
    Count of elements : 1432
    Stream size : 46.4 KiB (0%)
    Language : French
    Default : No
    Forced : No

    Text #17
    ID : 19
    Format : UTF-8
    Codec ID : S_TEXT/UTF8
    Codec ID/Info : UTF-8 Plain Text
    Duration : 1 h 26 min
    Bit rate : 98 b/s
    Frame rate : 0.341 FPS
    Count of elements : 1781
    Stream size : 62.8 KiB (0%)
    Title : SDH
    Language : French
    Default : No
    Forced : No

    Text #18
    ID : 20
    Format : UTF-8
    Codec ID : S_TEXT/UTF8
    Codec ID/Info : UTF-8 Plain Text
    Duration : 1 h 28 min
    Bit rate : 124 b/s
    Frame rate : 0.269 FPS
    Count of elements : 1425
    Stream size : 80.3 KiB (0%)
    Language : Hebrew
    Default : No
    Forced : No

    Text #19
    ID : 21
    Format : UTF-8
    Codec ID : S_TEXT/UTF8
    Codec ID/Info : UTF-8 Plain Text
    Duration : 1 h 28 min
    Bit rate : 219 b/s
    Frame rate : 0.285 FPS
    Count of elements : 1508
    Stream size : 142 KiB (0%)
    Language : Hindi
    Default : No
    Forced : No

    Text #20
    ID : 22
    Format : UTF-8
    Codec ID : S_TEXT/UTF8
    Codec ID/Info : UTF-8 Plain Text
    Duration : 1 h 28 min
    Bit rate : 69 b/s
    Frame rate : 0.272 FPS
    Count of elements : 1437
    Stream size : 45.1 KiB (0%)
    Language : Croatian
    Default : No
    Forced : No

    Text #21
    ID : 23
    Format : UTF-8
    Codec ID : S_TEXT/UTF8
    Codec ID/Info : UTF-8 Plain Text
    Duration : 1 h 28 min
    Bit rate : 74 b/s
    Frame rate : 0.270 FPS
    Count of elements : 1429
    Stream size : 47.8 KiB (0%)
    Language : Hungarian
    Default : No
    Forced : No

    Text #22
    ID : 24
    Format : UTF-8
    Codec ID : S_TEXT/UTF8
    Codec ID/Info : UTF-8 Plain Text
    Duration : 1 h 26 min
    Bit rate : 97 b/s
    Frame rate : 0.330 FPS
    Count of elements : 1720
    Stream size : 62.0 KiB (0%)
    Title : SDH
    Language : Hungarian
    Default : No
    Forced : No

    Text #23
    ID : 25
    Format : UTF-8
    Codec ID : S_TEXT/UTF8
    Codec ID/Info : UTF-8 Plain Text
    Duration : 1 h 28 min
    Bit rate : 78 b/s
    Frame rate : 0.283 FPS
    Count of elements : 1496
    Stream size : 50.6 KiB (0%)
    Language : Indonesian
    Default : No
    Forced : No

    Text #24
    ID : 26
    Format : UTF-8
    Codec ID : S_TEXT/UTF8
    Codec ID/Info : UTF-8 Plain Text
    Duration : 1 h 18 min
    Bit rate : 101 b/s
    Frame rate : 0.366 FPS
    Count of elements : 1726
    Stream size : 58.2 KiB (0%)
    Title : SDH
    Language : Indonesian
    Default : No
    Forced : No

    Text #25
    ID : 27
    Format : UTF-8
    Codec ID : S_TEXT/UTF8
    Codec ID/Info : UTF-8 Plain Text
    Duration : 1 h 28 min
    Bit rate : 71 b/s
    Frame rate : 0.277 FPS
    Count of elements : 1466
    Stream size : 45.9 KiB (0%)
    Language : Italian
    Default : No
    Forced : No

    Text #26
    ID : 28
    Format : UTF-8
    Codec ID : S_TEXT/UTF8
    Codec ID/Info : UTF-8 Plain Text
    Duration : 1 h 28 min
    Bit rate : 98 b/s
    Frame rate : 0.336 FPS
    Count of elements : 1789
    Stream size : 63.8 KiB (0%)
    Title : SDH
    Language : Italian
    Default : No
    Forced : No

    Text #27
    ID : 29
    Format : UTF-8
    Codec ID : S_TEXT/UTF8
    Codec ID/Info : UTF-8 Plain Text
    Duration : 1 h 28 min
    Bit rate : 73 b/s
    Frame rate : 0.317 FPS
    Count of elements : 1677
    Stream size : 47.5 KiB (0%)
    Language : Japanese
    Default : No
    Forced : No

    Text #28
    ID : 30
    Format : UTF-8
    Codec ID : S_TEXT/UTF8
    Codec ID/Info : UTF-8 Plain Text
    Duration : 1 h 28 min
    Bit rate : 98 b/s
    Frame rate : 0.294 FPS
    Count of elements : 1556
    Stream size : 63.8 KiB (0%)
    Language : Korean
    Default : No
    Forced : No

    Text #29
    ID : 31
    Format : UTF-8
    Codec ID : S_TEXT/UTF8
    Codec ID/Info : UTF-8 Plain Text
    Duration : 1 h 28 min
    Bit rate : 70 b/s
    Frame rate : 0.278 FPS
    Count of elements : 1471
    Stream size : 45.5 KiB (0%)
    Language : Malay
    Default : No
    Forced : No

    Text #30
    ID : 32
    Format : UTF-8
    Codec ID : S_TEXT/UTF8
    Codec ID/Info : UTF-8 Plain Text
    Duration : 1 h 28 min
    Bit rate : 71 b/s
    Frame rate : 0.227 FPS
    Count of elements : 1199
    Stream size : 46.4 KiB (0%)
    Language : Norwegian Bokmal
    Default : No
    Forced : No

    Text #31
    ID : 33
    Format : UTF-8
    Codec ID : S_TEXT/UTF8
    Codec ID/Info : UTF-8 Plain Text
    Duration : 1 h 28 min
    Bit rate : 64 b/s
    Frame rate : 0.197 FPS
    Count of elements : 1044
    Stream size : 41.6 KiB (0%)
    Language : Dutch
    Default : No
    Forced : No

    Text #32
    ID : 34
    Format : UTF-8
    Codec ID : S_TEXT/UTF8
    Codec ID/Info : UTF-8 Plain Text
    Duration : 1 h 28 min
    Bit rate : 71 b/s
    Frame rate : 0.273 FPS
    Count of elements : 1446
    Stream size : 46.1 KiB (0%)
    Language : Polish
    Default : No
    Forced : No

    Text #33
    ID : 35
    Format : UTF-8
    Codec ID : S_TEXT/UTF8
    Codec ID/Info : UTF-8 Plain Text
    Duration : 1 h 28 min
    Bit rate : 71 b/s
    Frame rate : 0.281 FPS
    Count of elements : 1487
    Stream size : 46.5 KiB (0%)
    Title : Brazilian
    Language : Portuguese (BR)
    Default : No
    Forced : No

    Text #34
    ID : 36
    Format : UTF-8
    Codec ID : S_TEXT/UTF8
    Codec ID/Info : UTF-8 Plain Text
    Duration : 1 h 26 min
    Bit rate : 105 b/s
    Frame rate : 0.355 FPS
    Count of elements : 1854
    Stream size : 67.2 KiB (0%)
    Title : Brazilian (SDH)
    Language : Portuguese (BR)
    Default : No
    Forced : No

    Text #35
    ID : 37
    Format : UTF-8
    Codec ID : S_TEXT/UTF8
    Codec ID/Info : UTF-8 Plain Text
    Duration : 1 h 28 min
    Bit rate : 76 b/s
    Frame rate : 0.279 FPS
    Count of elements : 1479
    Stream size : 49.7 KiB (0%)
    Title : European
    Language : Portuguese (PT)
    Default : No
    Forced : No

    Text #36
    ID : 38
    Format : UTF-8
    Codec ID : S_TEXT/UTF8
    Codec ID/Info : UTF-8 Plain Text
    Duration : 1 h 28 min
    Bit rate : 83 b/s
    Frame rate : 0.275 FPS
    Count of elements : 1455
    Stream size : 54.1 KiB (0%)
    Language : Romanian
    Default : No
    Forced : No

    Text #37
    ID : 39
    Format : UTF-8
    Codec ID : S_TEXT/UTF8
    Codec ID/Info : UTF-8 Plain Text
    Duration : 1 h 28 min
    Bit rate : 117 b/s
    Frame rate : 0.283 FPS
    Count of elements : 1499
    Stream size : 75.8 KiB (0%)
    Language : Russian
    Default : No
    Forced : No

    Text #38
    ID : 40
    Format : UTF-8
    Codec ID : S_TEXT/UTF8
    Codec ID/Info : UTF-8 Plain Text
    Duration : 1 h 28 min
    Bit rate : 68 b/s
    Frame rate : 0.263 FPS
    Count of elements : 1392
    Stream size : 44.6 KiB (0%)
    Language : Swedish
    Default : No
    Forced : No

    Text #39
    ID : 41
    Format : UTF-8
    Codec ID : S_TEXT/UTF8
    Codec ID/Info : UTF-8 Plain Text
    Duration : 1 h 28 min
    Bit rate : 188 b/s
    Frame rate : 0.285 FPS
    Count of elements : 1509
    Stream size : 122 KiB (0%)
    Language : Thai
    Default : No
    Forced : No

    Text #40
    ID : 42
    Format : UTF-8
    Codec ID : S_TEXT/UTF8
    Codec ID/Info : UTF-8 Plain Text
    Duration : 1 h 28 min
    Bit rate : 74 b/s
    Frame rate : 0.274 FPS
    Count of elements : 1452
    Stream size : 48.4 KiB (0%)
    Language : Turkish
    Default : No
    Forced : No

    Text #41
    ID : 43
    Format : UTF-8
    Codec ID : S_TEXT/UTF8
    Codec ID/Info : UTF-8 Plain Text
    Duration : 1 h 28 min
    Bit rate : 105 b/s
    Frame rate : 0.327 FPS
    Count of elements : 1730
    Stream size : 68.3 KiB (0%)
    Title : SDH
    Language : Turkish
    Default : No
    Forced : No

    Text #42
    ID : 44
    Format : UTF-8
    Codec ID : S_TEXT/UTF8
    Codec ID/Info : UTF-8 Plain Text
    Duration : 1 h 28 min
    Bit rate : 119 b/s
    Frame rate : 0.281 FPS
    Count of elements : 1488
    Stream size : 77.3 KiB (0%)
    Language : Ukrainian
    Default : No
    Forced : No

    Text #43
    ID : 45
    Format : UTF-8
    Codec ID : S_TEXT/UTF8
    Codec ID/Info : UTF-8 Plain Text
    Duration : 1 h 28 min
    Bit rate : 103 b/s
    Frame rate : 0.283 FPS
    Count of elements : 1500
    Stream size : 66.9 KiB (0%)
    Language : Vietnamese
    Default : No
    Forced : No

    Text #44
    ID : 46
    Format : UTF-8
    Codec ID : S_TEXT/UTF8
    Codec ID/Info : UTF-8 Plain Text
    Duration : 1 h 28 min
    Bit rate : 82 b/s
    Frame rate : 0.297 FPS
    Count of elements : 1570
    Stream size : 53.2 KiB (0%)
    Title : Simplified
    Language : Chinese (Simplied)
    Default : No
    Forced : No

    Text #45
    ID : 47
    Format : UTF-8
    Codec ID : S_TEXT/UTF8
    Codec ID/Info : UTF-8 Plain Text
    Duration : 1 h 28 min
    Bit rate : 76 b/s
    Frame rate : 0.301 FPS
    Count of elements : 1594
    Stream size : 49.5 KiB (0%)
    Title : Traditional
    Language : Chinese (Traditional)
    Default : No
    Forced : No



    《谋杀疑案2》4k电影 · 网盘/云盘/BT 下载  Cloud storage / Cloud disk / BT download
  • 下载本版资源三步骤
    1、在《4K电影列表》找到并打开电影下载页,点击下载框按钮或复制磁力链,将BT种子下载到电脑中。
    2、电脑安装《BT下载软件》,免费的推荐使用《UTorrent》下载,收费的推荐使用《115网盘》下载(速度又快又稳).
    3、用BT下载软件,打开BT种子、或将磁力链复制粘贴到BT软件中即可下载。


    下载速度慢怎么办
    1、正常情况使用《UTorrent》跟着网站发布资源节奏下载速度很快,可以达到宽带最大速度(电信)
    2、推荐使用《115网盘》下载速度又快又稳定,请勿使用迅雷下载;
    3、下载慢是有多方面原因,即依赖种子的热度、也要求是电信宽带(非移动/联通),同时选择对的下载软件和软件设置方法。
    4、使用BT协议下载没有速度,请更新《Trackers服务器》能够增加在线用户(越多越好),该方法使用《UTorrent》下载效果显著。
    更多下载问题参考: 4K电影下载新手学院>>

    多个种子/电影版本区别
    蓝光原盘BDMV
    俗称4K蓝光原盘,也就是从4K UHD蓝光碟中提取出来的源文件,由多个m2ts文件组成,与正版盘完全一致,且包含了光盘所有内容 (影片花絮、字幕、导航菜单、多语言多音轨、HDR 信息)等等,文件体积大,一部电影约有60GB+。此版本资源一般以「BDMV 文件夹」或「BDISO」 (iso) 格式发布;该版本可以用刻录机成带导航的光盘效果。

    DIY蓝光原盘BDMV
    经资源制作组基于蓝光原盘BDMV版本进行第二次DIY的版本,将片头AE特效、画面HDR调色、封装国语音轨、封装中文简体/繁体/英文等多语言字幕,更精彩的是是特效字幕(将电影画面中某些细节翻译成中文字幕)。

    蓝光BD-REMUX
    俗称REMUX,可以视为「音画质无损的精简版」"4K原盘",它其实就是将原盘里多余的一些音轨、花絮、菜单、字幕等东西移除或精简,仅保留主要的视频、主要音轨和部分语言字幕,然后再封装成「单个文件」的 .mkv 格式而来,其音质画质与BDMV蓝光原盘一致,但文件体积上能大幅缩减且成单个文件,在电脑上播放/管理/电视播放/播放器播放和分享起来也更方便。适合追求原盘音画质、不重视花絮周边内容、又希望稍微节省点硬盘空间的朋友。

    WEB-DL/WEBRip/流媒体版本
    WEB-DL 或 WEBRip 格式的影片主要来自 、Amazon Prime Video、Netflix、Hulu、YouTube 等「在线网络高清片源」。尽管这些服务提供了4K分辨率 (部分含 HDR) 的片源,但它们为了在线观看的流畅性,都会将视频画质进行较大幅度「有损压缩」。 WEB-DL 是 Web Download 的意思,指通过技术手段「直接下载」回来的在线视频 WEBRip 很多时候则是通过"屏幕转录"等方式二次录制,会造成多一次的画质损失。



    《谋杀疑案2》4k电影 · 网盘/云盘/BT 下载  Cloud storage / Cloud disk / BT download
猜猜猜谁是凶手2(港) / 夺命鸳殃2(台) / 谋杀疑云2 / 谋杀之谜2 / 谋杀案2/谋杀疑案2 Murder.Mystery.2.2023.2160p.NF.WEB-DL.x265.10bit.HDR.DDP5.1.Atmos.x265-4k电影下载

谋杀疑案2 Murder.Mystery.2.2023.2160p.NF.WEB-DL.x265.10bit.HDR.DDP5.1.Atmos.x265【简繁中字】【HDR 7.81 GB】

Murder.Mystery.2.2023.2160p.NF.WEB-DL.x265.10bit.HDR.DDP5.1.Atmos.x265-FLUX.torrent ( 19.9 KB )


谋杀疑案2 Murder.Mystery.2.2023.2160p.NF.WEB-DL.x265.10bit.SDR.DDP5.1.Atmos.x265【简繁中字】【SDR 7.42 GB】

Murder.Mystery.2.2023.2160p.NF.WEB-DL.x265.10bit.SDR.DDP5.1.Atmos.x265-FLUX.torrent ( 18.92 KB )



最新回复
还没人回复...
登录 发布 快速回复 返回顶部 返回列表