开启辅助访问
 找回密码
 立即注册
孤国春秋:七王丧钟 豆瓣评分: 7.0分 年份: 2023年 片长: 111 分钟 地区: 英国  类型: 动作  格式: 4K HDR  音轨: Dolby TrueHD 5.1  导演: 爱德华·巴瑟杰特 主演: 亚历山大·德雷蒙 / 马克·罗利 / 阿纳斯·费达拉维修斯 / 鲁德·哈利特 / 哈利·基尔比
预告片欣赏
取消
简介 :

  电视剧《孤国春秋》的续作,根据原著小说最后三部改编。主人公乌特雷德将辅佐埃塞尔斯坦登上王位并统一英格兰。  “七位国王会死,贝班堡的乌特雷德,七位国王和你所爱的女人,(……)那是你的命运。阿尔弗雷德的儿子不会统治,威塞克斯会死,撒克逊人会杀死他所爱的人,丹麦人会获得一切,一切都会改变,一切都会像过去一样,将来也会一样。”

  • 电影下载
  • 资源INFO
  • 下载说明
  • 《孤国春秋:七王丧钟》4k电影 · 网盘/云盘/BT 下载  Cloud storage / Cloud disk / BT download

  • 《孤国春秋:七王丧钟》电影INFO  Video INFO
    Video
    ID : 1
    Format : HEVC
    Format/Info : High Efficiency Video Coding
    Format profile : Main 10@L5@Main
    HDR format : Dolby Vision, Version 1.0, dvhe.08.07, BL+RPU, HDR10 compatible / SMPTE ST 2086, HDR10 compatible
    Codec ID : V_MPEGH/ISO/HEVC
    Duration : 1 h 51 min
    Bit rate : 18.8 Mb/s
    Width : 3 840 pixels
    Height : 2 160 pixels
    Display aspect ratio : 16:9
    Frame rate mode : Constant
    Frame rate : 25.000 FPS
    Color space : YUV
    Chroma subsampling : 4:2:0 (Type 2)
    Bit depth : 10 bits
    Bits/(Pixel*Frame) : 0.090
    Stream size : 14.7 GiB (97%)
    Language : English
    Default : Yes
    Forced : No
    Color range : Limited
    Color primaries : BT.2020
    Transfer characteristics : PQ
    Matrix coefficients : BT.2020 non-constant
    Mastering display color primaries : Display P3
    Mastering display luminance : min: 0.0001 cd/m2, max: 1000 cd/m2
    Maximum Content Light Level : 786 cd/m2
    Maximum Frame-Average Light Level : 147 cd/m2

    Audio
    ID : 2
    Format : E-AC-3
    Format/Info : Enhanced AC-3
    Commercial name : Dolby Digital Plus
    Codec ID : A_EAC3
    Duration : 1 h 53 min
    Bit rate mode : Constant
    Bit rate : 640 kb/s
    Channel(s) : 6 channels
    Channel layout : L R C LFE Ls Rs
    Sampling rate : 48.0 kHz
    Frame rate : 31.250 FPS (1536 SPF)
    Compression mode : Lossy
    Stream size : 521 MiB (3%)
    Language : English
    Service kind : Complete Main
    Default : Yes
    Forced : No

    Text #1
    ID : 3
    Format : UTF-8
    Codec ID : S_TEXT/UTF8
    Codec ID/Info : UTF-8 Plain Text
    Duration : 1 h 45 min
    Bit rate : 51 b/s
    Frame rate : 0.193 FPS
    Count of elements : 1222
    Stream size : 40.0 KiB (0%)
    Language : English
    Default : No
    Forced : No

    Text #2
    ID : 4
    Format : UTF-8
    Codec ID : S_TEXT/UTF8
    Codec ID/Info : UTF-8 Plain Text
    Duration : 1 h 47 min
    Bit rate : 58 b/s
    Frame rate : 0.218 FPS
    Count of elements : 1412
    Stream size : 46.3 KiB (0%)
    Title : SDH
    Language : English
    Default : No
    Forced : No

    Text #3
    ID : 5
    Format : UTF-8
    Codec ID : S_TEXT/UTF8
    Codec ID/Info : UTF-8 Plain Text
    Duration : 1 h 47 min
    Bit rate : 85 b/s
    Frame rate : 0.185 FPS
    Count of elements : 1192
    Stream size : 67.8 KiB (0%)
    Language : Arabic
    Default : No
    Forced : No

    Text #4
    ID : 6
    Format : UTF-8
    Codec ID : S_TEXT/UTF8
    Codec ID/Info : UTF-8 Plain Text
    Duration : 1 h 50 min
    Bit rate : 47 b/s
    Frame rate : 0.178 FPS
    Count of elements : 1180
    Stream size : 38.2 KiB (0%)
    Language : Catalan
    Default : No
    Forced : No

    Text #5
    ID : 7
    Format : UTF-8
    Codec ID : S_TEXT/UTF8
    Codec ID/Info : UTF-8 Plain Text
    Duration : 1 h 51 min
    Bit rate : 46 b/s
    Frame rate : 0.174 FPS
    Count of elements : 1162
    Stream size : 38.0 KiB (0%)
    Language : Czech
    Default : No
    Forced : No

    Text #6
    ID : 8
    Format : UTF-8
    Codec ID : S_TEXT/UTF8
    Codec ID/Info : UTF-8 Plain Text
    Duration : 1 h 50 min
    Bit rate : 47 b/s
    Frame rate : 0.174 FPS
    Count of elements : 1150
    Stream size : 38.1 KiB (0%)
    Language : Danish
    Default : No
    Forced : No

    Text #7
    ID : 9
    Format : UTF-8
    Codec ID : S_TEXT/UTF8
    Codec ID/Info : UTF-8 Plain Text
    Duration : 1 h 50 min
    Bit rate : 49 b/s
    Frame rate : 0.176 FPS
    Count of elements : 1166
    Stream size : 39.7 KiB (0%)
    Language : German
    Default : No
    Forced : No

    Text #8
    ID : 10
    Format : UTF-8
    Codec ID : S_TEXT/UTF8
    Codec ID/Info : UTF-8 Plain Text
    Duration : 1 h 51 min
    Bit rate : 84 b/s
    Frame rate : 0.178 FPS
    Count of elements : 1189
    Stream size : 69.0 KiB (0%)
    Language : Greek
    Default : No
    Forced : No

    Text #9
    ID : 11
    Format : UTF-8
    Codec ID : S_TEXT/UTF8
    Codec ID/Info : UTF-8 Plain Text
    Duration : 1 h 51 min
    Bit rate : 45 b/s
    Frame rate : 0.176 FPS
    Count of elements : 1178
    Stream size : 37.2 KiB (0%)
    Title : Latin American
    Language : Spanish (Latin America)
    Default : No
    Forced : No

    Text #10
    ID : 12
    Format : UTF-8
    Codec ID : S_TEXT/UTF8
    Codec ID/Info : UTF-8 Plain Text
    Duration : 1 h 51 min
    Bit rate : 43 b/s
    Frame rate : 0.174 FPS
    Count of elements : 1164
    Stream size : 35.8 KiB (0%)
    Language : Spanish (ES)
    Default : No
    Forced : No

    Text #11
    ID : 13
    Format : UTF-8
    Codec ID : S_TEXT/UTF8
    Codec ID/Info : UTF-8 Plain Text
    Duration : 1 h 50 min
    Bit rate : 47 b/s
    Frame rate : 0.179 FPS
    Count of elements : 1188
    Stream size : 38.5 KiB (0%)
    Language : Basque
    Default : No
    Forced : No

    Text #12
    ID : 14
    Format : UTF-8
    Codec ID : S_TEXT/UTF8
    Codec ID/Info : UTF-8 Plain Text
    Duration : 1 h 50 min
    Bit rate : 46 b/s
    Frame rate : 0.168 FPS
    Count of elements : 1115
    Stream size : 37.9 KiB (0%)
    Language : Finnish
    Default : No
    Forced : No

    Text #13
    ID : 15
    Format : UTF-8
    Codec ID : S_TEXT/UTF8
    Codec ID/Info : UTF-8 Plain Text
    Duration : 1 h 51 min
    Bit rate : 52 b/s
    Frame rate : 0.176 FPS
    Count of elements : 1177
    Stream size : 42.7 KiB (0%)
    Language : fil
    Default : No
    Forced : No

    Text #14
    ID : 16
    Format : UTF-8
    Codec ID : S_TEXT/UTF8
    Codec ID/Info : UTF-8 Plain Text
    Duration : 1 h 50 min
    Bit rate : 47 b/s
    Frame rate : 0.178 FPS
    Count of elements : 1180
    Stream size : 38.6 KiB (0%)
    Language : French
    Default : No
    Forced : No

    Text #15
    ID : 17
    Format : UTF-8
    Codec ID : S_TEXT/UTF8
    Codec ID/Info : UTF-8 Plain Text
    Duration : 1 h 50 min
    Bit rate : 42 b/s
    Frame rate : 0.178 FPS
    Count of elements : 1175
    Stream size : 34.5 KiB (0%)
    Language : Galician
    Default : No
    Forced : No

    Text #16
    ID : 18
    Format : UTF-8
    Codec ID : S_TEXT/UTF8
    Codec ID/Info : UTF-8 Plain Text
    Duration : 1 h 51 min
    Bit rate : 77 b/s
    Frame rate : 0.170 FPS
    Count of elements : 1136
    Stream size : 63.3 KiB (0%)
    Language : Hebrew
    Default : No
    Forced : No

    Text #17
    ID : 19
    Format : UTF-8
    Codec ID : S_TEXT/UTF8
    Codec ID/Info : UTF-8 Plain Text
    Duration : 1 h 51 min
    Bit rate : 43 b/s
    Frame rate : 0.178 FPS
    Count of elements : 1189
    Stream size : 35.8 KiB (0%)
    Language : Croatian
    Default : No
    Forced : No

    Text #18
    ID : 20
    Format : UTF-8
    Codec ID : S_TEXT/UTF8
    Codec ID/Info : UTF-8 Plain Text
    Duration : 1 h 51 min
    Bit rate : 47 b/s
    Frame rate : 0.172 FPS
    Count of elements : 1146
    Stream size : 38.6 KiB (0%)
    Language : Hungarian
    Default : No
    Forced : No

    Text #19
    ID : 21
    Format : UTF-8
    Codec ID : S_TEXT/UTF8
    Codec ID/Info : UTF-8 Plain Text
    Duration : 1 h 50 min
    Bit rate : 49 b/s
    Frame rate : 0.179 FPS
    Count of elements : 1183
    Stream size : 40.0 KiB (0%)
    Language : Indonesian
    Default : No
    Forced : No

    Text #20
    ID : 22
    Format : UTF-8
    Codec ID : S_TEXT/UTF8
    Codec ID/Info : UTF-8 Plain Text
    Duration : 1 h 51 min
    Bit rate : 48 b/s
    Frame rate : 0.184 FPS
    Count of elements : 1230
    Stream size : 39.6 KiB (0%)
    Language : Italian
    Default : No
    Forced : No

    Text #21
    ID : 23
    Format : UTF-8
    Codec ID : S_TEXT/UTF8
    Codec ID/Info : UTF-8 Plain Text
    Duration : 1 h 51 min
    Bit rate : 44 b/s
    Frame rate : 0.195 FPS
    Count of elements : 1301
    Stream size : 36.3 KiB (0%)
    Language : Japanese
    Default : No
    Forced : No

    Text #22
    ID : 24
    Format : UTF-8
    Codec ID : S_TEXT/UTF8
    Codec ID/Info : UTF-8 Plain Text
    Duration : 1 h 51 min
    Bit rate : 65 b/s
    Frame rate : 0.184 FPS
    Count of elements : 1228
    Stream size : 53.3 KiB (0%)
    Language : Korean
    Default : No
    Forced : No

    Text #23
    ID : 25
    Format : UTF-8
    Codec ID : S_TEXT/UTF8
    Codec ID/Info : UTF-8 Plain Text
    Duration : 1 h 50 min
    Bit rate : 46 b/s
    Frame rate : 0.174 FPS
    Count of elements : 1151
    Stream size : 37.2 KiB (0%)
    Language : Malay
    Default : No
    Forced : No

    Text #24
    ID : 26
    Format : UTF-8
    Codec ID : S_TEXT/UTF8
    Codec ID/Info : UTF-8 Plain Text
    Duration : 1 h 50 min
    Bit rate : 44 b/s
    Frame rate : 0.171 FPS
    Count of elements : 1134
    Stream size : 35.7 KiB (0%)
    Language : Norwegian Bokmal
    Default : No
    Forced : No

    Text #25
    ID : 27
    Format : UTF-8
    Codec ID : S_TEXT/UTF8
    Codec ID/Info : UTF-8 Plain Text
    Duration : 1 h 50 min
    Bit rate : 49 b/s
    Frame rate : 0.172 FPS
    Count of elements : 1141
    Stream size : 40.1 KiB (0%)
    Language : Dutch
    Default : No
    Forced : No

    Text #26
    ID : 28
    Format : UTF-8
    Codec ID : S_TEXT/UTF8
    Codec ID/Info : UTF-8 Plain Text
    Duration : 1 h 51 min
    Bit rate : 44 b/s
    Frame rate : 0.177 FPS
    Count of elements : 1185
    Stream size : 36.5 KiB (0%)
    Language : Polish
    Default : No
    Forced : No

    Text #27
    ID : 29
    Format : UTF-8
    Codec ID : S_TEXT/UTF8
    Codec ID/Info : UTF-8 Plain Text
    Duration : 1 h 50 min
    Bit rate : 49 b/s
    Frame rate : 0.178 FPS
    Count of elements : 1179
    Stream size : 40.2 KiB (0%)
    Title : Brazilian
    Language : Portuguese (BR)
    Default : No
    Forced : No

    Text #28
    ID : 30
    Format : UTF-8
    Codec ID : S_TEXT/UTF8
    Codec ID/Info : UTF-8 Plain Text
    Duration : 1 h 51 min
    Bit rate : 49 b/s
    Frame rate : 0.177 FPS
    Count of elements : 1182
    Stream size : 40.0 KiB (0%)
    Language : Portuguese (PT)
    Default : No
    Forced : No

    Text #29
    ID : 31
    Format : UTF-8
    Codec ID : S_TEXT/UTF8
    Codec ID/Info : UTF-8 Plain Text
    Duration : 1 h 50 min
    Bit rate : 52 b/s
    Frame rate : 0.164 FPS
    Count of elements : 1083
    Stream size : 42.5 KiB (0%)
    Language : Romanian
    Default : No
    Forced : No

    Text #30
    ID : 32
    Format : UTF-8
    Codec ID : S_TEXT/UTF8
    Codec ID/Info : UTF-8 Plain Text
    Duration : 1 h 51 min
    Bit rate : 76 b/s
    Frame rate : 0.178 FPS
    Count of elements : 1188
    Stream size : 62.3 KiB (0%)
    Language : Russian
    Default : No
    Forced : No

    Text #31
    ID : 33
    Format : UTF-8
    Codec ID : S_TEXT/UTF8
    Codec ID/Info : UTF-8 Plain Text
    Duration : 1 h 50 min
    Bit rate : 49 b/s
    Frame rate : 0.153 FPS
    Count of elements : 1015
    Stream size : 40.2 KiB (0%)
    Language : Swedish
    Default : No
    Forced : No

    Text #32
    ID : 34
    Format : UTF-8
    Codec ID : S_TEXT/UTF8
    Codec ID/Info : UTF-8 Plain Text
    Duration : 1 h 51 min
    Bit rate : 137 b/s
    Frame rate : 0.178 FPS
    Count of elements : 1191
    Stream size : 112 KiB (0%)
    Language : Thai
    Default : No
    Forced : No

    Text #33
    ID : 35
    Format : UTF-8
    Codec ID : S_TEXT/UTF8
    Codec ID/Info : UTF-8 Plain Text
    Duration : 1 h 51 min
    Bit rate : 47 b/s
    Frame rate : 0.175 FPS
    Count of elements : 1169
    Stream size : 38.6 KiB (0%)
    Language : Turkish
    Default : No
    Forced : No

    Text #34
    ID : 36
    Format : UTF-8
    Codec ID : S_TEXT/UTF8
    Codec ID/Info : UTF-8 Plain Text
    Duration : 1 h 51 min
    Bit rate : 77 b/s
    Frame rate : 0.178 FPS
    Count of elements : 1186
    Stream size : 62.9 KiB (0%)
    Language : Ukrainian
    Default : No
    Forced : No

    Text #35
    ID : 37
    Format : UTF-8
    Codec ID : S_TEXT/UTF8
    Codec ID/Info : UTF-8 Plain Text
    Duration : 1 h 51 min
    Bit rate : 69 b/s
    Frame rate : 0.165 FPS
    Count of elements : 1100
    Stream size : 56.6 KiB (0%)
    Language : Vietnamese
    Default : No
    Forced : No

    Text #36
    ID : 38
    Format : UTF-8
    Codec ID : S_TEXT/UTF8
    Codec ID/Info : UTF-8 Plain Text
    Duration : 1 h 51 min
    Bit rate : 53 b/s
    Frame rate : 0.178 FPS
    Count of elements : 1191
    Stream size : 43.4 KiB (0%)
    Title : Simplified
    Language : Chinese (Simplied)
    Default : No
    Forced : No

    Text #37
    ID : 39
    Format : UTF-8
    Codec ID : S_TEXT/UTF8
    Codec ID/Info : UTF-8 Plain Text
    Duration : 1 h 51 min
    Bit rate : 46 b/s
    Frame rate : 0.179 FPS
    Count of elements : 1197
    Stream size : 38.2 KiB (0%)
    Title : Traditional
    Language : Chinese (Traditional)
    Default : No
    Forced : No

    Menu
    00:00:00.000 : en:Part 01
    01:48:27.450 : en:Credits



    《孤国春秋:七王丧钟》4k电影 · 网盘/云盘/BT 下载  Cloud storage / Cloud disk / BT download
  • 下载本版资源三步骤
    1、在《4K电影列表》找到并打开电影下载页,点击下载框按钮或复制磁力链,将BT种子下载到电脑中。
    2、电脑安装《BT下载软件》,免费的推荐使用《UTorrent》下载,收费的推荐使用《115网盘》下载(速度又快又稳).
    3、用BT下载软件,打开BT种子、或将磁力链复制粘贴到BT软件中即可下载。


    下载速度慢怎么办
    1、正常情况使用《UTorrent》跟着网站发布资源节奏下载速度很快,可以达到宽带最大速度(电信)
    2、推荐使用《115网盘》下载速度又快又稳定,请勿使用迅雷下载;
    3、下载慢是有多方面原因,即依赖种子的热度、也要求是电信宽带(非移动/联通),同时选择对的下载软件和软件设置方法。
    4、使用BT协议下载没有速度,请更新《Trackers服务器》能够增加在线用户(越多越好),该方法使用《UTorrent》下载效果显著。
    更多下载问题参考: 4K电影下载新手学院>>

    多个种子/电影版本区别
    蓝光原盘BDMV
    俗称4K蓝光原盘,也就是从4K UHD蓝光碟中提取出来的源文件,由多个m2ts文件组成,与正版盘完全一致,且包含了光盘所有内容 (影片花絮、字幕、导航菜单、多语言多音轨、HDR 信息)等等,文件体积大,一部电影约有60GB+。此版本资源一般以「BDMV 文件夹」或「BDISO」 (iso) 格式发布;该版本可以用刻录机成带导航的光盘效果。

    DIY蓝光原盘BDMV
    经资源制作组基于蓝光原盘BDMV版本进行第二次DIY的版本,将片头AE特效、画面HDR调色、封装国语音轨、封装中文简体/繁体/英文等多语言字幕,更精彩的是是特效字幕(将电影画面中某些细节翻译成中文字幕)。

    蓝光BD-REMUX
    俗称REMUX,可以视为「音画质无损的精简版」"4K原盘",它其实就是将原盘里多余的一些音轨、花絮、菜单、字幕等东西移除或精简,仅保留主要的视频、主要音轨和部分语言字幕,然后再封装成「单个文件」的 .mkv 格式而来,其音质画质与BDMV蓝光原盘一致,但文件体积上能大幅缩减且成单个文件,在电脑上播放/管理/电视播放/播放器播放和分享起来也更方便。适合追求原盘音画质、不重视花絮周边内容、又希望稍微节省点硬盘空间的朋友。

    WEB-DL/WEBRip/流媒体版本
    WEB-DL 或 WEBRip 格式的影片主要来自 、Amazon Prime Video、Netflix、Hulu、YouTube 等「在线网络高清片源」。尽管这些服务提供了4K分辨率 (部分含 HDR) 的片源,但它们为了在线观看的流畅性,都会将视频画质进行较大幅度「有损压缩」。 WEB-DL 是 Web Download 的意思,指通过技术手段「直接下载」回来的在线视频 WEBRip 很多时候则是通过"屏幕转录"等方式二次录制,会造成多一次的画质损失。



    《孤国春秋:七王丧钟》4k电影 · 网盘/云盘/BT 下载  Cloud storage / Cloud disk / BT download
孤国春秋:七王必死/孤国春秋:七王丧钟4K The.Last.Kingdom.Seven.Kings.Must.Die.2023.2160p.NF.WEB-DL.x265.10bit.HDR.DDP5.1.x265-4k电影下载

孤国春秋:七王丧钟4K The.Last.Kingdom.Seven.Kings.Must.Die.2023.2160p.NF.WEB-DL.x265.10bit.HDR.DDP5.1.x265【简繁中字】【HDR  15.18 GB】

The.Last.Kingdom.Seven.Kings.Must.Die.2023.2160p.NF.WEB-DL.x265.10bit.HDR.DDP5.1.x265-FLUX.torrent ( 19.39 KB )


孤国春秋:七王丧钟4K The.Last.Kingdom.Seven.Kings.Must.Die.2023.2160p.NF.WEB-DL.x265.10bit.SDR.DDP5.1.x265【简繁中字】【SDR  9.75 GB】

The.Last.Kingdom.Seven.Kings.Must.Die.2023.2160p.NF.WEB-DL.x265.10bit.SDR.DDP5.1.x265-FLUX.torrent ( 24.95 KB )

最新回复
还没人回复...
登录 发布 快速回复 返回顶部 返回列表