开启辅助访问
 找回密码
 立即注册
09届探员 豆瓣评分: 无评 状态: 第一季(更新至第2集 共9集) 画质标准: 4K(3840x2160) 音轨声道: 其他DD   日期: 2023-05-10 地区: 美国  类型: 剧情 惊悚 犯罪  导演: 未知 主演: 凯特·玛拉 / 布莱恩·泰里·亨利 / 布莱恩·J·史密斯 / 罗莎琳德·以利亚撒 / 塞皮德·莫阿菲 / 乔恩·琼·布里恩斯 / 布鲁克·史密斯 / 杰克·麦克道曼 / 林赛·艾利夫 / 菲尔·阿米霍 / 马克·佩雷格里诺 / 科里·斯科特·艾伦 / 劳尔·卡斯提洛 / 尼古拉斯·罗根 / David Diaan / 托姆·威廉姆斯 / 里克·佩雷斯 / 迈克·普涅夫斯基 / 克里斯·加恩 / 薇薇安娜·查维斯 / 马克·罗韦 / Bryan McClure / Isaiah Stratton / Jefferson Cox / Sarafina King / Camry Brault / Alexander Grace / Briar Boggs / Nick DeKay / Nick Hagelin / Ethan Hernandez
预告片欣赏
取消
简介 :

  故事讲述在近未来美国的司法系统已经被人工智能所改变,主角是一群FBI探员,这群在09年毕业的探员因为一名共同好友过世而重聚。整个故事会横跨30年,在三条时间线里谈及正义、人性及角色的选择将导致什么事情发生。...

  • 剧集下载
  • 资源INFO
  • 下载说明
  • 《09届探员》4k剧集 · 网盘/云盘/BT 下载  Cloud storage / Cloud disk / BT download

    提 取 码 :   隐藏内容
  • 《09届探员》影片INFO  Video INFO
    Video
    ID : 1
    Format : HEVC
    Format/Info : High Efficiency Video Coding
    Format profile : Main 10@L5.1@Main
    Codec ID : V_MPEGH/ISO/HEVC
    Duration : 48 min 32 s
    Bit rate : 14.5 Mb/s
    Width : 3 840 pixels
    Height : 2 160 pixels
    Display aspect ratio : 16:9
    Frame rate mode : Constant
    Frame rate : 23.976 (24000/1001) FPS
    Color space : YUV
    Chroma subsampling : 4:2:0
    Bit depth : 10 bits
    Bits/(Pixel*Frame) : 0.073
    Stream size : 4.93 GiB (96%)
    Default : Yes
    Forced : No

    Audio
    ID : 2
    Format : E-AC-3
    Format/Info : Enhanced AC-3
    Commercial name : Dolby Digital Plus
    Codec ID : A_EAC3
    Duration : 48 min 32 s
    Bit rate mode : Constant
    Bit rate : 256 kb/s
    Channel(s) : 6 channels
    Channel layout : L R C LFE Ls Rs
    Sampling rate : 48.0 kHz
    Frame rate : 31.250 FPS (1536 SPF)
    Compression mode : Lossy
    Stream size : 88.9 MiB (2%)
    Language : English
    Service kind : Complete Main
    Default : Yes
    Forced : No

    Text
    ID : 3
    Format : UTF-8
    Codec ID : S_TEXT/UTF8
    Codec ID/Info : UTF-8 Plain Text
    Title : English [SDH]
    Language : English
    Default : No
    Forced : No



    《09届探员》4k剧集 · 网盘/云盘/BT 下载  Cloud storage / Cloud disk / BT download

    提 取 码 :   隐藏内容
  • 下载本版资源三步骤
    1、在《4K电视剧列表》找到并打开剧集下载页,点击下载框按钮或复制磁力链,将BT种子下载到电脑中。
    2、电脑安装《BT下载软件》,免费的推荐使用《UTorrent》下载,收费的推荐使用《115网盘》下载(速度又快又稳).
    3、用BT下载软件,打开BT种子、或将磁力链复制粘贴到BT软件中即可下载。


    下载速度慢怎么办
    1、正常情况使用《UTorrent》跟着网站发布资源节奏下载速度很快,可以达到宽带最大速度(电信)
    2、推荐使用《115网盘》下载速度又快又稳定,请勿使用迅雷下载;
    3、下载慢是有多方面原因,即依赖种子的热度、也要求是电信宽带(非移动/联通),同时选择对的下载软件和软件设置方法。
    4、使用BT协议下载没有速度,请更新《Trackers服务器》能够增加在线用户(越多越好),该方法使用《UTorrent》下载效果显著。
    更多下载问题参考: 4K电影下载新手学院>>

    多个种子/电影版本区别
    蓝光原盘BDMV
    俗称4K蓝光原盘,也就是从4K UHD蓝光碟中提取出来的源文件,由多个m2ts文件组成,与正版盘完全一致,且包含了光盘所有内容 (影片花絮、字幕、导航菜单、多语言多音轨、HDR 信息)等等,文件体积大,一部电影约有60GB+。此版本资源一般以「BDMV 文件夹」或「BDISO」 (iso) 格式发布;该版本可以用刻录机成带导航的光盘效果。

    DIY蓝光原盘BDMV
    经资源制作组基于蓝光原盘BDMV版本进行第二次DIY的版本,将片头AE特效、画面HDR调色、封装国语音轨、封装中文简体/繁体/英文等多语言字幕,更精彩的是是特效字幕(将电影画面中某些细节翻译成中文字幕)。

    蓝光BD-REMUX
    俗称REMUX,可以视为「音画质无损的精简版」"4K原盘",它其实就是将原盘里多余的一些音轨、花絮、菜单、字幕等东西移除或精简,仅保留主要的视频、主要音轨和部分语言字幕,然后再封装成「单个文件」的 .mkv 格式而来,其音质画质与BDMV蓝光原盘一致,但文件体积上能大幅缩减且成单个文件,在电脑上播放/管理/电视播放/播放器播放和分享起来也更方便。适合追求原盘音画质、不重视花絮周边内容、又希望稍微节省点硬盘空间的朋友。

    WEB-DL/WEBRip/流媒体版本
    WEB-DL 或 WEBRip 格式的影片主要来自 、Amazon Prime Video、Netflix、Hulu、YouTube 等「在线网络高清片源」。尽管这些服务提供了4K分辨率 (部分含 HDR) 的片源,但它们为了在线观看的流畅性,都会将视频画质进行较大幅度「有损压缩」。 WEB-DL 是 Web Download 的意思,指通过技术手段「直接下载」回来的在线视频 WEBRip 很多时候则是通过"屏幕转录"等方式二次录制,会造成多一次的画质损失。



    《09届探员》4k剧集 · 网盘/云盘/BT 下载  Cloud storage / Cloud disk / BT download

    提 取 码 :   隐藏内容
09届探员 4k Class.of.09.S01.2160p.WEB.H265-CAKES[rarbg] 4k美剧下载

09届探员 4k Class.of.09.S01E01.2160p.WEB.H265-CAKES[rarbg] 【5.2GB】

Class.of.09.S01E01.2160p.WEB.H265-CAKES[rarbg].torrent ( 13.69 KB )


09届探员 4k Class.of.09.S01E02.2160p.WEB.H265-CAKES[rarbg] 【4.5GB】

Class.of.09.S01E02.2160p.WEB.H265-CAKES[rarbg].torrent ( 23.38 KB )


最新回复
还没人回复...
登录 发布 快速回复 返回顶部 返回列表