开启辅助访问
 找回密码
 立即注册
乱世微光 豆瓣评分: 8.9 状态: 第一季(完结) 画质标准: 4K(3840x2160) 音轨声道: 其他DD   日期: 2023-05-01 地区: 美国  类型: 剧情 传记 战争 历史  导演: 苏珊娜·福格尔 / 托尼·佩兰 / 莱斯利·霍普 主演: 蓓尔·波利 / 乔·科尔 / 列维·施瑞博尔 / 安迪·尼曼
预告片欣赏
取消
简介 :

  Disney+ / Nat Geo这部七集限定剧由《晨间风云》“Claire”,《少女日记》女主Bel Powley、《清道夫》后再度回归的Liev Schreiber以及刚刚结束《伊普克雷斯档案》的Joe Cole加入其中,重述Miep Gies的故事。
  来自《实习医生格蕾》的Joan Rater与Tony Phelan将会为剧集撰写剧本,此前执导了《空乘危机》的Susanna Fogel确认执导多集。此次Bel将饰演主角Miep,而Joe则饰演她的丈夫“Jan”,Liev则饰演Anne Frank的父亲Otto Frank。
  Miep在二十多岁的时候,收到Otto的请求,希望可以藏匿在她的家中,以此躲过纳粹当时对于犹太人的迫害。Miep与自己的丈夫Jan,还有其它的人义无反顾地担起了这个重担;在接下来的两年里,照顾着包括Otto、Anne在内的八名避难者。
  尽管在1944年这次藏匿计划以失败告终,但Otto妥善保存了Anne于躲藏期间所写的《安妮日记》,并在战后交还给了唯一幸存的Otto,整理成了此后最重要的纪录文献。而在二战后,Miep与Jan成立了社会团体,协助战后归来的人,并致力于对部分人关于日记造假进行驳斥。2010年,Miep于阿姆斯特丹去世,享年100岁。
  “超过两万名荷兰人在需要藏匿的那几年间协助藏匿犹太人及其他人,我只是欣然做我可以协助的事。我丈夫也是。这不算什么。” Miep曾经这样说道。...

  • 剧集下载
  • 资源INFO
  • 下载说明
  • 《乱世微光》4k剧集 · 网盘/云盘/BT 下载  Cloud storage / Cloud disk / BT download
      隐藏内容
  • 《乱世微光》影片INFO  Video INFO
    Video
    ID : 1
    Format : HEVC
    Format/Info : High Efficiency Video Coding
    Format profile : Main 10@L5.1@Main
    HDR format : Dolby Vision, Version 1.0, dvhe.08.06, BL+RPU, HDR10 compatible / SMPTE ST 2094 App 4, Version 1, HDR10+ Profile B compatible
    Codec ID : V_MPEGH/ISO/HEVC
    Duration : 55 min 8 s
    Bit rate : 14.0 Mb/s
    Width : 3 840 pixels
    Height : 2 160 pixels
    Display aspect ratio : 16:9
    Frame rate mode : Constant
    Frame rate : 23.976 (24000/1001) FPS
    Color space : YUV
    Chroma subsampling : 4:2:0 (Type 2)
    Bit depth : 10 bits
    Bits/(Pixel*Frame) : 0.070
    Stream size : 5.38 GiB (96%)
    Default : Yes
    Forced : No
    Color range : Limited
    Color primaries : BT.2020
    Transfer characteristics : PQ
    Matrix coefficients : BT.2020 non-constant
    Mastering display color primaries : Display P3
    Mastering display luminance : min: 0.0001 cd/m2, max: 1000 cd/m2
    Maximum Content Light Level : 419 cd/m2
    Maximum Frame-Average Light Level : 111 cd/m2

    Audio
    ID : 2
    Format : E-AC-3
    Format/Info : Enhanced AC-3
    Commercial name : Dolby Digital Plus
    Codec ID : A_EAC3
    Duration : 55 min 8 s
    Bit rate mode : Constant
    Bit rate : 256 kb/s
    Channel(s) : 6 channels
    Channel layout : L R C LFE Ls Rs
    Sampling rate : 48.0 kHz
    Frame rate : 31.250 FPS (1536 SPF)
    Compression mode : Lossy
    Stream size : 101 MiB (2%)
    Language : English
    Service kind : Complete Main
    Default : Yes
    Forced : No

    Text
    ID : 3
    Format : UTF-8
    Codec ID : S_TEXT/UTF8
    Codec ID/Info : UTF-8 Plain Text
    Title : English [SDH]
    Language : English
    Default : No
    Forced : No



    《乱世微光》4k剧集 · 网盘/云盘/BT 下载  Cloud storage / Cloud disk / BT download
      隐藏内容
  • 下载本版资源三步骤
    1、在《4K电视剧列表》找到并打开剧集下载页,点击下载框按钮或复制磁力链,将BT种子下载到电脑中。
    2、电脑安装《BT下载软件》,免费的推荐使用《UTorrent》下载,收费的推荐使用《115网盘》下载(速度又快又稳).
    3、用BT下载软件,打开BT种子、或将磁力链复制粘贴到BT软件中即可下载。


    下载速度慢怎么办
    1、正常情况使用《UTorrent》跟着网站发布资源节奏下载速度很快,可以达到宽带最大速度(电信)
    2、推荐使用《115网盘》下载速度又快又稳定,请勿使用迅雷下载;
    3、下载慢是有多方面原因,即依赖种子的热度、也要求是电信宽带(非移动/联通),同时选择对的下载软件和软件设置方法。
    4、使用BT协议下载没有速度,请更新《Trackers服务器》能够增加在线用户(越多越好),该方法使用《UTorrent》下载效果显著。
    更多下载问题参考: 4K电影下载新手学院>>

    多个种子/电影版本区别
    蓝光原盘BDMV
    俗称4K蓝光原盘,也就是从4K UHD蓝光碟中提取出来的源文件,由多个m2ts文件组成,与正版盘完全一致,且包含了光盘所有内容 (影片花絮、字幕、导航菜单、多语言多音轨、HDR 信息)等等,文件体积大,一部电影约有60GB+。此版本资源一般以「BDMV 文件夹」或「BDISO」 (iso) 格式发布;该版本可以用刻录机成带导航的光盘效果。

    DIY蓝光原盘BDMV
    经资源制作组基于蓝光原盘BDMV版本进行第二次DIY的版本,将片头AE特效、画面HDR调色、封装国语音轨、封装中文简体/繁体/英文等多语言字幕,更精彩的是是特效字幕(将电影画面中某些细节翻译成中文字幕)。

    蓝光BD-REMUX
    俗称REMUX,可以视为「音画质无损的精简版」"4K原盘",它其实就是将原盘里多余的一些音轨、花絮、菜单、字幕等东西移除或精简,仅保留主要的视频、主要音轨和部分语言字幕,然后再封装成「单个文件」的 .mkv 格式而来,其音质画质与BDMV蓝光原盘一致,但文件体积上能大幅缩减且成单个文件,在电脑上播放/管理/电视播放/播放器播放和分享起来也更方便。适合追求原盘音画质、不重视花絮周边内容、又希望稍微节省点硬盘空间的朋友。

    WEB-DL/WEBRip/流媒体版本
    WEB-DL 或 WEBRip 格式的影片主要来自 、Amazon Prime Video、Netflix、Hulu、YouTube 等「在线网络高清片源」。尽管这些服务提供了4K分辨率 (部分含 HDR) 的片源,但它们为了在线观看的流畅性,都会将视频画质进行较大幅度「有损压缩」。 WEB-DL 是 Web Download 的意思,指通过技术手段「直接下载」回来的在线视频 WEBRip 很多时候则是通过"屏幕转录"等方式二次录制,会造成多一次的画质损失。



    《乱世微光》4k剧集 · 网盘/云盘/BT 下载  Cloud storage / Cloud disk / BT download
      隐藏内容
微弱光芒/乱世微光4k.A.Small.Light.2023.S01.2160p.Dolby.Vision.Multi.Sub.DDP5.1.DV.x265.MP4-4k美剧下载

乱世微光4k.A.Small.Light.2023.S01.2160p.Dolby.Vision.Multi.Sub.DDP5.1.DV.x265.MP4【41.5 GB】


A.Small.Light.2023.S01.2160p.Dolby.Vision.Multi.Sub.DDP5.1.DV.x265.MP4-BEN.THE.MEN.torrent ( 105 KB )


最新回复
还没人回复...
登录 发布 快速回复 返回顶部 返回列表