开启辅助访问
 找回密码
 立即注册
携父同游 豆瓣评分: 8.5 状态: 第1~5季(完结) 画质标准: 4K(3840x2160) 音轨声道: 其他DD   日期: 2017-09-22 地区: 英国  类型: 喜剧 纪录  导演: 杰克·怀特霍尔 主演: 杰克·怀特霍尔 / 迈克尔·怀特霍尔 / 希拉里·怀特霍尔 / 史蒂文·西格尔 / Paul Ford / Sunstroke Project / Anthony Meindl / Brian Ronalds / Leif Ronalds / Logan Ronalds / Alison Langdon / Brett Lee / Ellyse Perry / 卡尔·斯特凡诺维奇 / Johnny Avila
预告片欣赏
取消
简介 :

《杰克·怀特霍尔:与父亲同行》是一部即将上映的旅行纪录片/公路旅行喜剧电视剧,计划在Netflix首播。该节目将由喜剧演员杰克·怀特霍尔和他的父亲迈克尔·怀特霍尔主持。[2] 在该节目中,两人将乘坐一条受欢迎的“空档年路线”前往东南亚,并将途经泰国、越南和柬埔寨等国。[3] 该剧将于9月在Netflix上映。...

  • 剧集下载
  • 资源INFO
  • 下载说明
  • 《携父同游》4k剧集 · 网盘/云盘/BT 下载  Cloud storage / Cloud disk / BT download

    提 取 码 :   隐藏内容
  • 《携父同游》影片INFO  Video INFO
    Video
    ID : 1
    Format : HEVC
    Format/Info : High Efficiency Video Coding
    Format profile : Main 10@L5@Main
    Codec ID : V_MPEGH/ISO/HEVC
    Duration : 32 min 11 s
    Bit rate : 11.9 Mb/s
    Width : 3 840 pixels
    Height : 2 160 pixels
    Display aspect ratio : 16:9
    Frame rate mode : Constant
    Frame rate : 25.000 FPS
    Color space : YUV
    Chroma subsampling : 4:2:0
    Bit depth : 10 bits
    Bits/(Pixel*Frame) : 0.058
    Stream size : 2.68 GiB (95%)
    Language : English
    Default : Yes
    Forced : No
    Color range : Limited
    Color primaries : BT.709
    Transfer characteristics : BT.709
    Matrix coefficients : BT.709

    Audio
    ID : 2
    Format : E-AC-3
    Format/Info : Enhanced AC-3
    Commercial name : Dolby Digital Plus
    Codec ID : A_EAC3
    Duration : 32 min 11 s
    Bit rate mode : Constant
    Bit rate : 640 kb/s
    Channel(s) : 6 channels
    Channel layout : L R C LFE Ls Rs
    Sampling rate : 48.0 kHz
    Frame rate : 31.250 FPS (1536 SPF)
    Compression mode : Lossy
    Stream size : 147 MiB (5%)
    Language : English
    Service kind : Complete Main
    Default : Yes
    Forced : No

    Text #1
    ID : 3
    Format : UTF-8
    Codec ID : S_TEXT/UTF8
    Codec ID/Info : UTF-8 Plain Text
    Duration : 31 min 22 s
    Bit rate : 100 b/s
    Frame rate : 0.292 FPS
    Count of elements : 549
    Stream size : 23.0 KiB (0%)
    Language : English
    Default : No
    Forced : No

    Text #2
    ID : 4
    Format : UTF-8
    Codec ID : S_TEXT/UTF8
    Codec ID/Info : UTF-8 Plain Text
    Duration : 31 min 22 s
    Bit rate : 108 b/s
    Frame rate : 0.310 FPS
    Count of elements : 584
    Stream size : 24.8 KiB (0%)
    Title : SDH
    Language : English
    Default : No
    Forced : No

    Text #3
    ID : 5
    Format : UTF-8
    Codec ID : S_TEXT/UTF8
    Codec ID/Info : UTF-8 Plain Text
    Duration : 31 min 56 s
    Bit rate : 153 b/s
    Frame rate : 0.283 FPS
    Count of elements : 542
    Stream size : 35.8 KiB (0%)
    Language : Arabic
    Default : No
    Forced : No

    Text #4
    ID : 6
    Format : UTF-8
    Codec ID : S_TEXT/UTF8
    Codec ID/Info : UTF-8 Plain Text
    Duration : 31 min 59 s
    Bit rate : 88 b/s
    Frame rate : 0.266 FPS
    Count of elements : 511
    Stream size : 20.8 KiB (0%)
    Language : Czech
    Default : No
    Forced : No

    Text #5
    ID : 7
    Format : UTF-8
    Codec ID : S_TEXT/UTF8
    Codec ID/Info : UTF-8 Plain Text
    Duration : 31 min 56 s
    Bit rate : 87 b/s
    Frame rate : 0.281 FPS
    Count of elements : 538
    Stream size : 20.5 KiB (0%)
    Language : Danish
    Default : No
    Forced : No

    Text #6
    ID : 8
    Format : UTF-8
    Codec ID : S_TEXT/UTF8
    Codec ID/Info : UTF-8 Plain Text
    Duration : 31 min 56 s
    Bit rate : 92 b/s
    Frame rate : 0.281 FPS
    Count of elements : 539
    Stream size : 21.6 KiB (0%)
    Language : German
    Default : No
    Forced : No

    Text #7
    ID : 9
    Format : UTF-8
    Codec ID : S_TEXT/UTF8
    Codec ID/Info : UTF-8 Plain Text
    Duration : 31 min 56 s
    Bit rate : 159 b/s
    Frame rate : 0.283 FPS
    Count of elements : 542
    Stream size : 37.3 KiB (0%)
    Language : Greek
    Default : No
    Forced : No

    Text #8
    ID : 10
    Format : UTF-8
    Codec ID : S_TEXT/UTF8
    Codec ID/Info : UTF-8 Plain Text
    Duration : 31 min 56 s
    Bit rate : 91 b/s
    Frame rate : 0.282 FPS
    Count of elements : 541
    Stream size : 21.5 KiB (0%)
    Title : Latin American
    Language : Spanish (Latin America)
    Default : No
    Forced : No

    Text #9
    ID : 11
    Format : UTF-8
    Codec ID : S_TEXT/UTF8
    Codec ID/Info : UTF-8 Plain Text
    Duration : 31 min 56 s
    Bit rate : 82 b/s
    Frame rate : 0.282 FPS
    Count of elements : 540
    Stream size : 19.4 KiB (0%)
    Language : Spanish (ES)
    Default : No
    Forced : No

    Text #10
    ID : 12
    Format : UTF-8
    Codec ID : S_TEXT/UTF8
    Codec ID/Info : UTF-8 Plain Text
    Duration : 31 min 56 s
    Bit rate : 81 b/s
    Frame rate : 0.280 FPS
    Count of elements : 536
    Stream size : 19.0 KiB (0%)
    Language : Finnish
    Default : No
    Forced : No

    Text #11
    ID : 13
    Format : UTF-8
    Codec ID : S_TEXT/UTF8
    Codec ID/Info : UTF-8 Plain Text
    Duration : 31 min 56 s
    Bit rate : 93 b/s
    Frame rate : 0.279 FPS
    Count of elements : 535
    Stream size : 21.9 KiB (0%)
    Language : French
    Default : No
    Forced : No

    Text #12
    ID : 14
    Format : UTF-8
    Codec ID : S_TEXT/UTF8
    Codec ID/Info : UTF-8 Plain Text
    Duration : 31 min 56 s
    Bit rate : 139 b/s
    Frame rate : 0.283 FPS
    Count of elements : 542
    Stream size : 32.7 KiB (0%)
    Language : Hebrew
    Default : No
    Forced : No

    Text #13
    ID : 15
    Format : UTF-8
    Codec ID : S_TEXT/UTF8
    Codec ID/Info : UTF-8 Plain Text
    Duration : 31 min 59 s
    Bit rate : 82 b/s
    Frame rate : 0.287 FPS
    Count of elements : 551
    Stream size : 19.2 KiB (0%)
    Language : Croatian
    Default : No
    Forced : No

    Text #14
    ID : 16
    Format : UTF-8
    Codec ID : S_TEXT/UTF8
    Codec ID/Info : UTF-8 Plain Text
    Duration : 31 min 27 s
    Bit rate : 88 b/s
    Frame rate : 0.289 FPS
    Count of elements : 545
    Stream size : 20.4 KiB (0%)
    Language : Hungarian
    Default : No
    Forced : No

    Text #15
    ID : 17
    Format : UTF-8
    Codec ID : S_TEXT/UTF8
    Codec ID/Info : UTF-8 Plain Text
    Duration : 31 min 59 s
    Bit rate : 92 b/s
    Frame rate : 0.287 FPS
    Count of elements : 551
    Stream size : 21.7 KiB (0%)
    Language : Indonesian
    Default : No
    Forced : No

    Text #16
    ID : 18
    Format : UTF-8
    Codec ID : S_TEXT/UTF8
    Codec ID/Info : UTF-8 Plain Text
    Duration : 31 min 56 s
    Bit rate : 88 b/s
    Frame rate : 0.282 FPS
    Count of elements : 540
    Stream size : 20.8 KiB (0%)
    Language : Italian
    Default : No
    Forced : No

    Text #17
    ID : 19
    Format : UTF-8
    Codec ID : S_TEXT/UTF8
    Codec ID/Info : UTF-8 Plain Text
    Duration : 31 min 59 s
    Bit rate : 76 b/s
    Frame rate : 0.283 FPS
    Count of elements : 544
    Stream size : 18.0 KiB (0%)
    Language : Japanese
    Default : No
    Forced : No

    Text #18
    ID : 20
    Format : UTF-8
    Codec ID : S_TEXT/UTF8
    Codec ID/Info : UTF-8 Plain Text
    Duration : 32 min 4 s
    Bit rate : 91 b/s
    Frame rate : 0.281 FPS
    Count of elements : 541
    Stream size : 21.4 KiB (0%)
    Language : Korean
    Default : No
    Forced : No

    Text #19
    ID : 21
    Format : UTF-8
    Codec ID : S_TEXT/UTF8
    Codec ID/Info : UTF-8 Plain Text
    Duration : 31 min 53 s
    Bit rate : 93 b/s
    Frame rate : 0.289 FPS
    Count of elements : 554
    Stream size : 21.9 KiB (0%)
    Language : Malay
    Default : No
    Forced : No

    Text #20
    ID : 22
    Format : UTF-8
    Codec ID : S_TEXT/UTF8
    Codec ID/Info : UTF-8 Plain Text
    Duration : 31 min 56 s
    Bit rate : 88 b/s
    Frame rate : 0.282 FPS
    Count of elements : 540
    Stream size : 20.7 KiB (0%)
    Language : Norwegian Bokmal
    Default : No
    Forced : No

    Text #21
    ID : 23
    Format : UTF-8
    Codec ID : S_TEXT/UTF8
    Codec ID/Info : UTF-8 Plain Text
    Duration : 32 min 4 s
    Bit rate : 81 b/s
    Frame rate : 0.272 FPS
    Count of elements : 523
    Stream size : 19.1 KiB (0%)
    Language : Dutch
    Default : No
    Forced : No

    Text #22
    ID : 24
    Format : UTF-8
    Codec ID : S_TEXT/UTF8
    Codec ID/Info : UTF-8 Plain Text
    Duration : 31 min 56 s
    Bit rate : 85 b/s
    Frame rate : 0.279 FPS
    Count of elements : 535
    Stream size : 20.0 KiB (0%)
    Language : Polish
    Default : No
    Forced : No

    Text #23
    ID : 25
    Format : UTF-8
    Codec ID : S_TEXT/UTF8
    Codec ID/Info : UTF-8 Plain Text
    Duration : 31 min 56 s
    Bit rate : 92 b/s
    Frame rate : 0.282 FPS
    Count of elements : 541
    Stream size : 21.6 KiB (0%)
    Title : Brazilian
    Language : Portuguese (BR)
    Default : No
    Forced : No

    Text #24
    ID : 26
    Format : UTF-8
    Codec ID : S_TEXT/UTF8
    Codec ID/Info : UTF-8 Plain Text
    Duration : 31 min 56 s
    Bit rate : 95 b/s
    Frame rate : 0.282 FPS
    Count of elements : 541
    Stream size : 22.3 KiB (0%)
    Language : Portuguese (PT)
    Default : No
    Forced : No

    Text #25
    ID : 27
    Format : UTF-8
    Codec ID : S_TEXT/UTF8
    Codec ID/Info : UTF-8 Plain Text
    Duration : 31 min 56 s
    Bit rate : 88 b/s
    Frame rate : 0.281 FPS
    Count of elements : 539
    Stream size : 20.7 KiB (0%)
    Language : Romanian
    Default : No
    Forced : No

    Text #26
    ID : 28
    Format : UTF-8
    Codec ID : S_TEXT/UTF8
    Codec ID/Info : UTF-8 Plain Text
    Duration : 32 min 0 s
    Bit rate : 142 b/s
    Frame rate : 0.278 FPS
    Count of elements : 534
    Stream size : 33.3 KiB (0%)
    Language : Russian
    Default : No
    Forced : No

    Text #27
    ID : 29
    Format : UTF-8
    Codec ID : S_TEXT/UTF8
    Codec ID/Info : UTF-8 Plain Text
    Duration : 31 min 56 s
    Bit rate : 88 b/s
    Frame rate : 0.282 FPS
    Count of elements : 540
    Stream size : 20.7 KiB (0%)
    Language : Swedish
    Default : No
    Forced : No

    Text #28
    ID : 30
    Format : UTF-8
    Codec ID : S_TEXT/UTF8
    Codec ID/Info : UTF-8 Plain Text
    Duration : 31 min 56 s
    Bit rate : 233 b/s
    Frame rate : 0.283 FPS
    Count of elements : 542
    Stream size : 54.5 KiB (0%)
    Language : Thai
    Default : No
    Forced : No

    Text #29
    ID : 31
    Format : UTF-8
    Codec ID : S_TEXT/UTF8
    Codec ID/Info : UTF-8 Plain Text
    Duration : 31 min 56 s
    Bit rate : 96 b/s
    Frame rate : 0.282 FPS
    Count of elements : 541
    Stream size : 22.5 KiB (0%)
    Language : Turkish
    Default : No
    Forced : No

    Text #30
    ID : 32
    Format : UTF-8
    Codec ID : S_TEXT/UTF8
    Codec ID/Info : UTF-8 Plain Text
    Duration : 31 min 25 s
    Bit rate : 115 b/s
    Frame rate : 0.292 FPS
    Count of elements : 550
    Stream size : 26.6 KiB (0%)
    Language : Vietnamese
    Default : No
    Forced : No

    Text #31
    ID : 33
    Format : UTF-8
    Codec ID : S_TEXT/UTF8
    Codec ID/Info : UTF-8 Plain Text
    Duration : 32 min 4 s
    Bit rate : 83 b/s
    Frame rate : 0.282 FPS
    Count of elements : 542
    Stream size : 19.5 KiB (0%)
    Title : Simplified
    Language : Chinese (Simplied)
    Default : No
    Forced : No

    Text #32
    ID : 34
    Format : UTF-8
    Codec ID : S_TEXT/UTF8
    Codec ID/Info : UTF-8 Plain Text
    Duration : 31 min 56 s
    Bit rate : 77 b/s
    Frame rate : 0.283 FPS
    Count of elements : 542
    Stream size : 18.1 KiB (0%)
    Title : Traditional
    Language : Chinese (Traditional)
    Default : No
    Forced : No

    Menu
    00:03:29.080 : en:Opening Credits
    00:03:47.680 : en:Chapter 01
    00:31:38.000 : en:End Credits



    《携父同游》4k剧集 · 网盘/云盘/BT 下载  Cloud storage / Cloud disk / BT download

    提 取 码 :   隐藏内容
  • 下载本版资源三步骤
    1、在《4K电视剧列表》找到并打开剧集下载页,点击下载框按钮或复制磁力链,将BT种子下载到电脑中。
    2、电脑安装《BT下载软件》,免费的推荐使用《UTorrent》下载,收费的推荐使用《115网盘》下载(速度又快又稳).
    3、用BT下载软件,打开BT种子、或将磁力链复制粘贴到BT软件中即可下载。


    下载速度慢怎么办
    1、正常情况使用《UTorrent》跟着网站发布资源节奏下载速度很快,可以达到宽带最大速度(电信)
    2、推荐使用《115网盘》下载速度又快又稳定,请勿使用迅雷下载;
    3、下载慢是有多方面原因,即依赖种子的热度、也要求是电信宽带(非移动/联通),同时选择对的下载软件和软件设置方法。
    4、使用BT协议下载没有速度,请更新《Trackers服务器》能够增加在线用户(越多越好),该方法使用《UTorrent》下载效果显著。
    更多下载问题参考: 4K电影下载新手学院>>

    多个种子/电影版本区别
    蓝光原盘BDMV
    俗称4K蓝光原盘,也就是从4K UHD蓝光碟中提取出来的源文件,由多个m2ts文件组成,与正版盘完全一致,且包含了光盘所有内容 (影片花絮、字幕、导航菜单、多语言多音轨、HDR 信息)等等,文件体积大,一部电影约有60GB+。此版本资源一般以「BDMV 文件夹」或「BDISO」 (iso) 格式发布;该版本可以用刻录机成带导航的光盘效果。

    DIY蓝光原盘BDMV
    经资源制作组基于蓝光原盘BDMV版本进行第二次DIY的版本,将片头AE特效、画面HDR调色、封装国语音轨、封装中文简体/繁体/英文等多语言字幕,更精彩的是是特效字幕(将电影画面中某些细节翻译成中文字幕)。

    蓝光BD-REMUX
    俗称REMUX,可以视为「音画质无损的精简版」"4K原盘",它其实就是将原盘里多余的一些音轨、花絮、菜单、字幕等东西移除或精简,仅保留主要的视频、主要音轨和部分语言字幕,然后再封装成「单个文件」的 .mkv 格式而来,其音质画质与BDMV蓝光原盘一致,但文件体积上能大幅缩减且成单个文件,在电脑上播放/管理/电视播放/播放器播放和分享起来也更方便。适合追求原盘音画质、不重视花絮周边内容、又希望稍微节省点硬盘空间的朋友。

    WEB-DL/WEBRip/流媒体版本
    WEB-DL 或 WEBRip 格式的影片主要来自 、Amazon Prime Video、Netflix、Hulu、YouTube 等「在线网络高清片源」。尽管这些服务提供了4K分辨率 (部分含 HDR) 的片源,但它们为了在线观看的流畅性,都会将视频画质进行较大幅度「有损压缩」。 WEB-DL 是 Web Download 的意思,指通过技术手段「直接下载」回来的在线视频 WEBRip 很多时候则是通过"屏幕转录"等方式二次录制,会造成多一次的画质损失。



    《携父同游》4k剧集 · 网盘/云盘/BT 下载  Cloud storage / Cloud disk / BT download

    提 取 码 :   隐藏内容

携父同游 第1~5季 Jack.Whitehall.Travels.With.My.Father.S01.2160p.NF.WEB-DL.x265.10bit.SDR.DDP5.1-HONE 4k美剧下载

携父同游 第一季 Jack.Whitehall.Travels.With.My.Father.S01.2160p.NF.WEB-DL.x265.10bit.SDR.DDP5.1-HONE[rartv]【16.5GB】

Jack.Whitehall.Travels.With.My.Father.S01.2160p.NF.WEB-DL.x265.10bit.SDR.DDP5.1-HONE[rartv].torrent ( 21.84 KB )


携父同游 第二季 Jack.Whitehall.Travels.With.My.Father.S02.2160p.NF.WEB-DL.x265.10bit.SDR.DDP5.1-HONE[rartv]【12.87GB】

Jack.Whitehall.Travels.With.My.Father.S02.2160p.NF.WEB-DL.x265.10bit.SDR.DDP5.1-HONE[rartv].torrent ( 17.18 KB )


携父同游 第三季 Jack.Whitehall.Travels.With.My.Father.S03.2160p.NF.WEB-DL.x265.10bit.SDR.DDP5.1-HONE[rartv]【9.7GB】

Jack.Whitehall.Travels.With.My.Father.S03.2160p.NF.WEB-DL.x265.10bit.SDR.DDP5.1-HONE[rartv].torrent ( 24.98 KB )


携父同游 第四季 Jack.Whitehall.Travels.With.My.Father.S04.2160p.NF.WEB-DL.x265.10bit.SDR.DDP5.1-HONE[rartv]【10.59GB】

Jack.Whitehall.Travels.With.My.Father.S04.2160p.NF.WEB-DL.x265.10bit.SDR.DDP5.1-HONE[rartv].torrent ( 13.95 KB )


携父同游 第五季 Jack.Whitehall.Travels.With.My.Father.S05.2160p.NF.WEB-DL.x265.10bit.SDR.DDP5.1-HONE[rartv]【13.35GB】

Jack.Whitehall.Travels.With.My.Father.S05.2160p.NF.WEB-DL.x265.10bit.SDR.DDP5.1-HONE[rartv].torrent ( 17.56 KB )


最新回复
还没人回复...
登录 发布 快速回复 返回顶部 返回列表