开启辅助访问
 找回密码
 立即注册

神奇星球地球 8K Amazing Planet Earth 8K TV VIDEO ULTRA HD 8k视频

#8K视频#时间:2023-05-21 阅读:175 回复:0
132750d7klcpbssoesk7zl.jpg.jpg

General
Format                         : MPEG-4
Format profile                 : Base Media
Codec ID                       : isom (isom/iso2/mp41)
File size                      : 20.1 GiB
Duration                       : 1 h 39 min
Overall bit rate               : 28.8 Mb/s
Frame rate                     : 24.000 FPS
Movie name                     : Amazing Planet Earth 8K TV VIDEO ULTRA HD
Performer                      : 8K VIDEOS ULTRA HD

Video
ID                             : 1
Format                         : AV1
Format/Info                    : AOMedia Video 1
Format profile                 : Main@L6.0
Codec ID                       : av01
Duration                       : 1 h 39 min
Bit rate                       : 28.7 Mb/s
Width                          : 7 680 pixels
Height                         : 4 320 pixels
Display aspect ratio           : 16:9
Frame rate mode                : Constant
Frame rate                     : 24.000 FPS
Color space                    : YUV
Chroma subsampling             : 4:2:0
Bit depth                      : 8 bits
Bits/(Pixel*Frame)             : 0.036
Stream size                    : 20.0 GiB (100%)
Title                          : ISO Media file produced by Google Inc.
Color range                    : Limited
Color primaries                : BT.709
Transfer characteristics       : BT.709
Matrix coefficients            : BT.709
Codec configuration box        : av1C


Audio
ID                             : 2
Format                         : AAC LC
Format/Info                    : Advanced Audio Codec Low Complexity
Codec ID                       : mp4a-40-2
Duration                       : 1 h 39 min
Bit rate mode                  : Constant
Bit rate                       : 128 kb/s
Channel(s)                     : 2 channels
Channel layout                 : L R
Sampling rate                  : 44.1 kHz
Frame rate                     : 43.066 FPS (1024 SPF)
Compression mode               : Lossy
Stream size                    : 91.3 MiB (0%)
Title                          : ISO Media file produced by Google Inc.
Language                       : English
Default                        : Yes
Alternate group                : 1


133040wul5kl9c5lcb5kck.png.jpg 133127pa6lmrm6l6mrgg46.png.jpg 133216icaaoza15o35ob7o.png.jpg

神奇星球地球 8K Amazing Planet Earth 8K TV VIDEO ULTRA HD  8k视频下载

Amazing Planet Earth 8K ...V VIDEO ULTRA HD.txt ( 346 Bytes )


登录 发布 快速回复 返回顶部 返回列表