开启辅助访问
 找回密码
 立即注册

这段视频将让你惊叹8K超高清-世界上最好的食物,伴随着平静的音乐 THIS VIDEO WILL MAKE YOU HUNGRY 8K ULTRA HD - Best Food In The World with Calming Music 8k视频

#8K视频#时间:2023-05-21 阅读:108 回复:0
133603rkfhkb2k9ky9nuv3.jpg.jpg



General
Format                         : MPEG-4
Format profile                 : Base Media
Codec ID                       : isom (isom/iso2/mp41)
File size                      : 17.1 GiB
Duration                       : 1 h 47 min
Overall bit rate               : 22.9 Mb/s
Frame rate                     : 24.000 FPS
Movie name                     : THIS VIDEO WILL MAKE YOU HUNGRY 8K ULTRA HD - Best Food In The World with Calming Music
Performer                      : 8K VIDEOS ULTRA HD

Video
ID                             : 1
Format                         : AV1
Format/Info                    : AOMedia Video 1
Format profile                 : Main@L6.0
Codec ID                       : av01
Duration                       : 1 h 47 min
Bit rate                       : 22.7 Mb/s
Width                          : 7 680 pixels
Height                         : 4 320 pixels
Display aspect ratio           : 16:9
Frame rate mode                : Constant
Frame rate                     : 24.000 FPS
Color space                    : YUV
Chroma subsampling             : 4:2:0
Bit depth                      : 8 bits
Bits/(Pixel*Frame)             : 0.029
Stream size                    : 17.0 GiB (99%)
Title                          : ISO Media file produced by Google Inc.
Color range                    : Limited
Color primaries                : BT.709
Transfer characteristics       : BT.709
Matrix coefficients            : BT.709
Codec configuration box        : av1C


Audio
ID                             : 2
Format                         : AAC LC
Format/Info                    : Advanced Audio Codec Low Complexity
Codec ID                       : mp4a-40-2
Duration                       : 1 h 47 min
Bit rate mode                  : Constant
Bit rate                       : 128 kb/s
Channel(s)                     : 2 channels
Channel layout                 : L R
Sampling rate                  : 44.1 kHz
Frame rate                     : 43.066 FPS (1024 SPF)
Compression mode               : Lossy
Stream size                    : 98.1 MiB (0%)
Title                          : ISO Media file produced by Google Inc.
Language                       : English
Default                        : Yes
Alternate group                : 1


133708sd4y5s4dxwzb4563.png.jpg 133731ipo4467zy8atmody.png.jpg 133749euuhfdfugg0dfg8d.png.jpg



这段视频将让你惊叹8K超高清-世界上最好的食物,伴随着平静的音乐 THIS VIDEO WILL MAKE YOU HUNGRY 8K ULTRA HD - Best Food In The World with Calming Music 8k视频下载

THIS VIDEO WILL MAKE YOU...th Calming Music.txt ( 352 Bytes )




登录 发布 快速回复 返回顶部 返回列表