开启辅助访问
 找回密码
 立即注册

野生鸟类8k视频收藏 8K WILD BIRDS UNLIMITED COLLECTION 8K TV HQ VIDEO - 8K视频

#8K视频#时间:2023-05-21 阅读:126 回复:0
134309o4ekcjn6k4o6jnqq.jpg.jpg



General
Format                         : MPEG-4
Format profile                 : Base Media
Codec ID                       : isom (isom/iso2/mp41)
File size                      : 12.5 GiB
Duration                       : 1 h 2 min
Overall bit rate               : 28.8 Mb/s
Frame rate                     : 24.000 FPS
Movie name                     : WILD BIRDS UNLIMITED COLLECTION 8K TV HQ VIDEO - 8K ULTRA HD
Performer                      : 8K VIDEOS ULTRA HD

Video
ID                             : 1
Format                         : AV1
Format/Info                    : AOMedia Video 1
Format profile                 : Main@L6.0
Codec ID                       : av01
Duration                       : 1 h 2 min
Bit rate                       : 28.7 Mb/s
Width                          : 7 680 pixels
Height                         : 4 320 pixels
Display aspect ratio           : 16:9
Frame rate mode                : Constant
Frame rate                     : 24.000 FPS
Color space                    : YUV
Chroma subsampling             : 4:2:0
Bit depth                      : 8 bits
Bits/(Pixel*Frame)             : 0.036
Stream size                    : 12.4 GiB (100%)
Title                          : ISO Media file produced by Google Inc.
Color range                    : Limited
Color primaries                : BT.709
Transfer characteristics       : BT.709
Matrix coefficients            : BT.709
Menus                          : 3
Codec configuration box        : av1C


Audio
ID                             : 2
Format                         : AAC LC
Format/Info                    : Advanced Audio Codec Low Complexity
Codec ID                       : mp4a-40-2
Duration                       : 1 h 2 min
Bit rate mode                  : Constant
Bit rate                       : 128 kb/s
Channel(s)                     : 2 channels
Channel layout                 : L R
Sampling rate                  : 44.1 kHz
Frame rate                     : 43.066 FPS (1024 SPF)
Compression mode               : Lossy
Stream size                    : 56.9 MiB (0%)
Title                          : ISO Media file produced by Google Inc.
Language                       : English
Default                        : Yes
Alternate group                : 1
Menus                          : 3


Menu #1
ID                             : 3
Format                         : Timed Text
Codec ID                       : text
Duration                       : 1 h 2 min
Language                       : English
Menu For                       : 1,2
00:00:00.000                   : INTRO 8K TV ULTRA HD.
00:00:10.000                   : The Most Beautiful Birds In The World.
00:05:00.000                   : The Most Beautiful Colorful Birds in The World.
00:10:00.000                   : Birds chirping and birds for cats to watch.
00:20:00.000                   : Relaxing Piano Music with Bird Sounds.
00:30:00.000                   : The 50 Rarest Birds of the World with Study Music.
00:40:00.000                   : Most amazing birds of prey.
00:45:00.000                   : Birds Name.
00:50:00.000                   : Birds images with Relaxing Sounds.
00:56:00.000                   : angry birds 8K.


Menu #2
00:00:00.000                   : INTRO 8K TV ULTRA HD.
00:00:10.000                   : The Most Beautiful Birds In The World.
00:05:00.000                   : The Most Beautiful Colorful Birds in The World.
00:10:00.000                   : Birds chirping and birds for cats to watch.
00:20:00.000                   : Relaxing Piano Music with Bird Sounds.
00:30:00.000                   : The 50 Rarest Birds of the World with Study Music.
00:40:00.000                   : Most amazing birds of prey.
00:45:00.000                   : Birds Name.
00:50:00.000                   : Birds images with Relaxing Sounds.
00:56:00.000                   : angry birds 8K.


134455so8cbo6l6ic4ba5l.png.jpg 134518lilwd2dk6ygbwgp2.png.jpg 134535ngwwj6geicvr5g1u.png.jpg


野生鸟类8k视频收藏 8K WILD BIRDS UNLIMITED COLLECTION 8K TV HQ VIDEO - 8K视频下载

WILD BIRDS UNLIMITED COL...EO - 8K ULTRA HD.mp4.txt ( 348 Bytes )


登录 发布 快速回复 返回顶部 返回列表