开启辅助访问
 找回密码
 立即注册

地球上最有趣的地方 8K MOST INTERESTING PLACES ON EARTH 8K WALLPAPER 8K视频

#8K视频#时间:2023-05-21 阅读:140 回复:0
134703ncj56jzg6mkzdkca.jpg.jpg

General
Format                         : MPEG-4
Format profile                 : Base Media
Codec ID                       : isom (isom/iso2/mp41)
File size                      : 15.6 GiB
Duration                       : 1 h 17 min
Overall bit rate               : 28.7 Mb/s
Frame rate                     : 24.000 FPS
Movie name                     : MOST INTERESTING PLACES ON EARTH 8K WALLPAPER / 8K TV | 8K ULTRA HD
Performer                      : 8K VIDEOS ULTRA HD

Video
ID                             : 1
Format                         : AV1
Format/Info                    : AOMedia Video 1
Format profile                 : Main@L6.0
Codec ID                       : av01
Duration                       : 1 h 17 min
Bit rate                       : 28.5 Mb/s
Width                          : 7 680 pixels
Height                         : 4 320 pixels
Display aspect ratio           : 16:9
Frame rate mode                : Constant
Frame rate                     : 24.000 FPS
Color space                    : YUV
Chroma subsampling             : 4:2:0
Bit depth                      : 8 bits
Bits/(Pixel*Frame)             : 0.036
Stream size                    : 15.5 GiB (100%)
Title                          : ISO Media file produced by Google Inc.
Color range                    : Limited
Color primaries                : BT.709
Transfer characteristics       : BT.709
Matrix coefficients            : BT.709
Codec configuration box        : av1C


Audio
ID                             : 2
Format                         : AAC LC
Format/Info                    : Advanced Audio Codec Low Complexity
Codec ID                       : mp4a-40-2
Duration                       : 1 h 17 min
Bit rate mode                  : Constant
Bit rate                       : 128 kb/s
Channel(s)                     : 2 channels
Channel layout                 : L R
Sampling rate                  : 44.1 kHz
Frame rate                     : 43.066 FPS (1024 SPF)
Compression mode               : Lossy
Stream size                    : 71.3 MiB (0%)
Title                          : ISO Media file produced by Google Inc.
Language                       : English
Default                        : Yes
Alternate group                : 1

134827qqjnqjssqns1ss1i.png.jpg 134840wyqrn97wkayzdnyy.png.jpg 134855br6pn3eyg8rb6exp.png.jpg

地球上最有趣的地方 8K MOST INTERESTING PLACES ON EARTH 8K WALLPAPER 8K视频下载

MOST INTERESTING PLACES ...TV _ 8K ULTRA HD.txt ( 348 Bytes )


登录 发布 快速回复 返回顶部 返回列表