开启辅助访问
 找回密码
 立即注册

4K演示片(鸷鸟)“鸷鸟之不群兮 自前世而固然”世界著名之鸟[2160P/197MB/百度]

#8K视频#时间:2023-05-21 阅读:152 回复:0


鸷鸟全身羽手黄色,高约四尺,爪尖嘴锐可畏,为巴勒斯坦最显著之鸟,筑巢于各山谷中。

1.凶猛的鸟。如鹰鹯之类。《楚辞·离骚》:“鸷鸟之不群兮,自前世而固然。”
2.燕的别名。
3.鸷鸟——属鸽、雕、鸮之类,乃食肉大鸟,头秃无毛,喜食尸体。

155446v0l4ivcpd14szn88.jpg.jpg 155446ipaffhisis144w4d.jpg.jpg


D:[4K] 鸷鸟 演示片.mp4
[4K] 鸷鸟 演示片[2160P/MP4/192M]
  General
    Format : MPEG-4
    Format profile : Base Media
    Codec ID : isom
    File size : 197 MiB
    Duration : 2mn 23s
    Overall bit rate : 11.5 Mbps
    Writing application : Lavf55.12.100
  Video #1
    ID : 1
    Format : AVC
    Format/Info : Advanced Video Codec
    Format profile : High@L5.1
    Format settings, CABAC : No
    Format settings, ReFrames : 3 frames
    Codec ID : avc1
    Codec ID/Info : Advanced Video Coding
    Duration : 2mn 23s
    Bit rate : 11.4 Mbps
    Width : 3 840 pixels
    Height : 2 160 pixels
    Display aspect ratio : 16:9
    Frame rate mode : Constant
    Frame rate : 29.970 fps
    Color space : YUV
    Chroma subsampling : 4:2:0
    Bit depth : 8 bits
    Scan type : Progressive
    Bits/(Pixel*Frame) : 0.046
    Stream size : 194 MiB (99%)
  Audio #2
    ID : 2
    Format : AAC
    Format/Info : Advanced Audio Codec
    Format profile : LC
    Codec ID : 40
    Duration : 2mn 23s
    Bit rate mode : Constant
    Bit rate : 126 Kbps
    Channel count : 2 channels
    Channel positions : Front: L R
    Sampling rate : 44.1 KHz
    Compression mode : Lossy
    Stream size : 2.15 MiB (1%)

4K !一个严重考验硬件配置的超超高清格式!
截图只是冰山一角,得自己去欣赏!


4K演示片(鸷鸟)“鸷鸟之不群兮 自前世而固然”世界著名之鸟[2160P/197MB/百度] 下载




登录 发布 快速回复 返回顶部 返回列表