开启辅助访问
 找回密码
 立即注册

三星200寸电视试机专用,变形金刚1~4精彩合集【百度云】

#8K视频#时间:2023-05-21 阅读:96 回复:0


153842ebkiklwayikkiphi.jpg.jpg 153841o21v55mamuqnqmai.jpg.jpg

153841si9188biu7i8hs1i.jpg.jpg 153841butdyatyaaunuft0.jpg.jpg

153841ytt44vk44mkk4vxk.jpg.jpg 153842z6h5idhda65hc14h.jpg.jpg

[三星专用]大气蓬勃 感受4K家庭影院的震撼(变形金刚4+3预告片)H265/1.3G/百度


General
ID                             : 0 (0x0)
Complete name                  : E:K中国UHD_ENT_Transformer_Quad.ts
Format                         : MPEG-TS
File size                      : 1.38 GiB
Duration                       : 3mn 51s
Overall bit rate mode          : Constant
Overall bit rate               : 51.4 Mbps

Video
ID                             : 257 (0x101)
Menu ID                        : 1 (0x1)
Format                         : HEVC
Format/Info                    : High Efficiency Video Coding
Codec ID                       : 36
Duration                       : 3mn 50s
Bit rate                       : 48.7 Mbps
Stream size                    : 1.31 GiB (94%)

Audio
ID                             : 258 (0x102)
Menu ID                        : 1 (0x1)
Format                         : AAC
Format/Info                    : Advanced Audio Codec
Format version                 : Version 4
Format profile                 : LC
Muxing mode                    : ADTS
Codec ID                       : 15
Duration                       : 3mn 50s
Bit rate mode                  : Constant
Bit rate                       : 126 Kbps
Channel(s)                     : 2 channels
Channel positions              : Front: L R
Sampling rate                  : 48.0 KHz
Compression mode               : Lossy
Stream size                    : 3.45 MiB (0%)

这应该是 变形金刚4+3+2+1混搭的4K演示片.
清晰度不错,无论是细节还是整体画面感,都很能代表4k电影的顶级水准。


三星200寸电视试机专用,变形金刚1~4精彩合集【百度云】下载:




登录 发布 快速回复 返回顶部 返回列表