开启辅助访问
 找回密码
 立即注册

samsung三星4K演示片-全球最美城市夜景:4K[迪拜Dubai]无与伦比的华丽璀璨3840×2160p百度云盘

#8K视频#时间:2023-05-21 阅读:181 回复:0


全球最美城市夜景:4K[迪拜Dubai]无与伦比的华丽璀璨3840×2160p[百度]


160558egq8vqggq8qomgbq.jpg.jpg 160558yju8jy0gj9jcce4l.jpg.jpg

160558ba6n400gw0565g6y.jpg.jpg 160558ey5vm4moh8vpmd5m.jpg.jpg

160559j8i70iy2x2o1k10o.jpg.jpg 160559x159p1pmovv9ppmi.jpg.jpg

160559iz3xfrrd22r3prod.jpg.jpg

一座超级土豪的城市,金碧辉煌的城市夜景。samsung三星4K演示片视频。

全球最美城市夜景:4K[迪拜Dubai]无与伦比的华丽璀璨
视频参数信息:

  • General
  • ID                             : 0 (0x0)
  • Complete name                  : T:K中国samsung三星4K演示片uhdtv迪拜Dubai.ts
  • Format                         : MPEG-TS
  • File size                      : 656 MiB
  • Duration                       : 1mn 47s
  • Overall bit rate mode          : Constant
  • Overall bit rate               : 51.4 Mbps
  • Video
  • ID                             : 257 (0x101)
  • Menu ID                        : 1 (0x1)
  • Format                         : HEVC
  • Format/Info                    : High Efficiency Video Coding
  • Codec ID                       : 36
  • Duration                       : 1mn 46s
  • Bit rate                       : 48.7 Mbps
  • Stream size                    : 616 MiB (94%)
  • Audio
  • ID                             : 258 (0x102)
  • Menu ID                        : 1 (0x1)
  • Format                         : AAC
  • Format/Info                    : Advanced Audio Codec
  • Format version                 : Version 4
  • Format profile                 : LC
  • Muxing mode                    : ADTS
  • Codec ID                       : 15
  • Duration                       : 1mn 46s
  • Bit rate mode                  : Variable
  • Bit rate                       : 137 Kbps
  • Channel(s)                     : 2 channels
  • Channel positions              : Front: L R
  • Sampling rate                  : 48.0 KHz
  • Compression mode               : Lossy
  • Stream size                    : 1.73 MiB (0%)

其它关键信息:

+类型:三星4K UHDTV视频演示片
+视频格式:TS
+文件大小:655mb
+视频编码:HEVC/H.265
+PS: H265需要软、硬件支持才能播放。

每一个镜头画面,都值得仔仔细细欣赏,反正我忍不住看了10多遍!
推荐在50寸以上屏幕观看。否则是体验不了这部片的真实感受。

samsung三星4K演示片-全球最美城市夜景:4K[迪拜Dubai]无与伦比的华丽璀璨3840×


链接: https://pan.baidu.com/s/1zmwGIHxQ9b50LhtXC7owOg 提取码: dyaf 复制这段内容后打开百度网盘手机App,操作更方便哦

登录 发布 快速回复 返回顶部 返回列表