开启辅助访问
 找回密码
 立即注册

拱门和大峡谷国家公园 4K演示片[2160P/MP4/百度]

#8K视频#时间:2023-05-22 阅读:83 回复:0


大峡谷国家公园位于亚利桑那州北边,占地1904平方英里,成立于1919年。大峡谷在1979年纳入联合国教科文组织的世界遗产(World Heritage)名单。大峡谷国家公园位于美国西部亚利桑那州凯巴布高原。面积2724.7平方千米。又称“科罗拉多大峡谷”。它大体呈呈东西走向,全长350千米,平均谷深1600米。峡谷顶宽6~30千米,峡谷往下收缩成V字形。两岸北高南低,最大谷深1500多米。谷底宽度不足1000米,最窄处仅120米,科罗拉多河从谷底流过。

150445ctk70tk9kwx7d7yx.jpg.jpg 150445ny8bfcw93bbz8zb9.jpg.jpg


  General
    Complete name : G:[4K] 拱门和大峡谷国家公园 演示片.mp4
    Format : MPEG-4
    Format profile : Base Media
    Codec ID : isom
    File size : 146 MiB
    Duration : 1mn 22s
    Overall bit rate : 14.9 Mbps
    Writing application : Lavf55.12.100
  Video #1
    ID : 1
    Format : AVC
    Format/Info : Advanced Video Codec
    Format profile : High@L5.1
    Format settings, CABAC : No
    Format settings, ReFrames : 2 frames
    Codec ID : avc1
    Codec ID/Info : Advanced Video Coding
    Duration : 1mn 22s
    Bit rate : 14.7 Mbps
    Width : 3 840 pixels
    Height : 2 160 pixels
    Display aspect ratio : 16:9
    Frame rate mode : Variable
    Frame rate : 24.000 fps
    Minimum frame rate : 24.000 fps
    Maximum frame rate : 30.612 fps
    Color space : YUV
    Chroma subsampling : 4:2:0
    Bit depth : 8 bits
    Scan type : Progressive
    Bits/(Pixel*Frame) : 0.074
    Stream size : 145 MiB (99%)
  Audio #2
    ID : 2
    Format : AAC
    Format/Info : Advanced Audio Codec
    Format profile : LC
    Codec ID : 40
    Duration : 1mn 22s
    Bit rate mode : Constant
    Bit rate : 126 Kbps
    Channel count : 2 channels
    Channel positions : Front: L R
    Sampling rate : 44.1 KHz
    Compression mode : Lossy
    Stream size : 1.23 MiB (1%)


4K !一个严重考验硬件配置的超超高清格式!
截图只是冰山一角,得自己去欣赏!

拱门和大峡谷国家公园 4K演示片[2160P/MP4/百度]下载


登录 发布 快速回复 返回顶部 返回列表