开启辅助访问
 找回密码
 立即注册

[天国美景]4K日本的富良野花田!又有新片可以炫耀了4096x2160P[500M/百度]

#8K视频#时间:2023-05-22 阅读:187 回复:0
[天国美景]4K日本的富良野花田!又有新片可以炫耀了4096x2160P[500M/百度] 下载

162855m5pouuuo8c5pfesg.jpg.jpg 162856anhmu7i73pmjms73.jpg.jpg

162856ck17em66h13684vt.jpg.jpg

[天国美景]4K日本的富良野花田!又有新片可以炫耀了4096x2160P[500M/百度]

[4K] 富良野・美瑛の花風景.mp4
 
  Format : MPEG-4
    Format profile : Base Media
    Codec ID : isom
    File size : 429 MiB
    Duration : 3mn 15s
    Overall bit rate : 18.4 Mbps
    Writing application : Lavf55.12.100
  Video #1
    ID : 1
    Format : AVC
    Format/Info : Advanced Video Codec
    Format profile : High@L5.1
    Format settings, CABAC : No
    Format settings, ReFrames : 2 frames
    Codec ID : avc1
    Codec ID/Info : Advanced Video Coding
    Duration : 3mn 14s
    Bit rate : 18.2 Mbps
    Width : 4 096 pixels
    Height : 2 160 pixels
    Display aspect ratio : 1.896
    Frame rate mode : Variable
    Frame rate : 29.970 fps
    Minimum frame rate : 29.920 fps
    Maximum frame rate : 40.816 fps
    Color space : YUV
    Chroma subsampling : 4:2:0
    Bit depth : 8 bits
    Scan type : Progressive
    Bits/(Pixel*Frame) : 0.069
    Stream size : 422 MiB (99%)
  Audio #2
    ID : 2
    Format : AAC
    Format/Info : Advanced Audio Codec
    Format profile : LC
    Codec ID : 40
    Duration : 3mn 15s
    Bit rate mode : Constant
    Bit rate : 254 Kbps
    Channel count : 2 channels
    Channel positions : Front: L R
    Sampling rate : 44.1 KHz
    Compression mode : Lossy
    Stream size : 5.90 MiB (1%)


[天国美景]4K日本的富良野花田!又有新片可以炫耀了4096x2160P[500M/百度] 下载


[天国美景]4K日本的富良野花田!又有新片可以炫耀了4096x2160P 500M百度]下载.txt.txt ( 360 Bytes )



登录 发布 快速回复 返回顶部 返回列表