开启辅助访问
 找回密码
 立即注册

【4k美剧】马可波罗之百眼Marco Polo: One Hundred Eyes 2015[2160P/MP4/891MB]百度云

#8K视频#时间:2023-05-22 阅读:187 回复:0
马可波罗之百眼 Marco Polo: One Hundred Eyes 2015[2160P/MP4/891MB]


163443ipw7bwg3kwb63w69.jpg.jpg

译  名:马可波罗之百眼

片  名:Marco Polo: One Hundred Eyes

年  代:2015

国  家:美国

类  别:动作

语  言:英语

音        频:AAC 5.1

视频尺寸:3840 x 2160

文件大小:891 MiB

上映日期:2015-12-26

IMDb评分:7.9/10 from 1,718 users

IMDb链接:http://www.imdb.com/title/tt5235348/

豆瓣链接:https://movie.douban.com/subject/26697796/

片  长:28分钟

导  演:Alik Sakharov

编       剧:约翰·福斯克

主  演: Tom Wu

                   洛伦佐·里凯尔米

                   Olivia Cheng

                   金秀贤

                   杨紫琼


简       介:

        
        由NETFLIX和韦恩斯坦(Weistein)制片公司投入9000万美元巨资拍摄的10集连续剧《马可波罗》在2014年年底首映,成为首部在全世界范围内播放的和中国历史有关的大型连续剧。而在2016年到来之际,NETFLIX特地推出了由该剧延伸而来的半小时特辑《百眼》(One Hundred Eyes),并宣布将在2016年6月正式推出《马可波罗》第二季。

        特辑《百眼》单独抽取首季剧情中的马可波罗的盲人师傅“百眼”这一特殊人物,来讲述他如何在捍卫武当山的寺庙遗产时,单人格杀成群的蒙古士兵,但最终被忽必烈俘往蒙古。即便是被俘期间,“百眼”仍能杀死数名猛将而逃脱,但最终还是被蒙古兵追回,并遭到忽必烈的残酷报复,致使双目失明。囚禁中,他真正领会了师父当年传授他的“百眼”禅宗。“百眼”由英国华裔演员Tom Wu饰演。

        早在2007年,美国剧作家John Fusco在蒙古拍摄由成龙和李连杰主演的《功夫之王》(The Forbidden Kingdom)期间,便幻想着他的祖籍国意大利的传奇人物马可波罗(Marco Polo)当年在东方的足迹。七年以后,当美国最大的流媒体影视网站NETFLIX着手寻找继《纸牌屋》(House of Cards)之后下一个能吸引全世界观众的题材时,John Fusco的马可波罗梦想终于成为现实。该剧在NETFLIX网站上公映,向全世界超过5000万订户开放,遍及全世界50多个国家。《马可波罗》是该公司为吸引全世界各地更多观众而打造的一部关键作品。

       《马可波罗》剧中汇集了多位华裔演员,包括80年代来美的老一代演员陈冲(饰演忽必烈Kublai Khan的皇后察必Chabi Khatun)、中国的80后演员朱珠(饰演马可波罗的情人阔阔真公主),英国华裔演员王汉斌(Benedict Wong,饰演忽必烈),加拿大华裔演员郑启蕙(Olivia Cheng),以及新加坡华裔演员黄经汉(Chin Han)等等。

         影片的男主角则由年仅24岁的意大利新生代演员罗伦佐·雷奇米(Lorenzo Richelmy)担纲主演。整部作品先后在马来西亚、卡萨克斯坦和意大利等地拍摄,马来西亚的大马影城被打造成了片中的“蒙古皇宫”。

         影片讲述13世纪,马可波罗一路东行,来到忽必烈统治下的蒙古帝国,不想却卷入了忽必烈正在酝酿的统治世界的战争阴霾之中。整部作品汇聚了宫廷权斗、武术、情欲等各种元素,志在为NETFLIX拿下全球更多市场份额。

影片参数

General
Complete name : Marco.Polo.One.Hundred.Eyes.2015.4K.2160p.NF.WEBRip.X265-HEVC.AAC5.1.mp4
Format : MPEG-4
Format profile : Base Media
Codec ID : isom (isom/iso2/mp41)
File size : 891 MiB
Duration : 28mn 16s
Overall bit rate : 4404 Kbps
Writing application : Lavf56.40.101

Video
ID : 1
Format : HEVC
Format/Info : High Efficiency Video Coding
Format profile : High@L5.1@Main
Codec ID : hev1
Codec ID/Info : High Efficiency Video Coding
Duration : 28mn 16s
Bit rate : 4016 Kbps
Width : 3840 pixels
Height : 2160 pixels
Display aspect ratio : 16:9
Frame rate mode : Constant
Frame rate : 23.976 fps (23976/1000) fps
Color space : YUV
Chroma subsampling : 4:2:0
Bit depth : 8 bits
Scan type : Progressive
Bits/(Pixel*Frame) : 0.020
Stream size : 812 MiB (91%)
Writing library : x265 1.7-723-g3bb248f:[Linux][GCC 4.7.2][64 bit] 8bit
Encoding settings : wpp/ctu=64 / min-cu-size=8 / max-tu-size=32 / tu-intra-depth=1 / tu-inter-depth=1 / subme=2 / merange=57 / no-rect / no-amp / max-merge=2 / temporal-mvp / no-early-skip /  rdpenalty=0 / no-tskip / no-tskip-fast / strong-intra-smoot

Audio
ID : 2
Format : AAC
Format/Info : Advanced Audio Codec
Format profile : LC
Codec ID : 40
Duration : 28mn 16s
Bit rate mode : Constant
Bit rate : 384 Kbps
Channel(s) : 2 channels
Channel(s)_Original : 6 channels
Channel positions : Front: L C R, Side: L R, LFE
Sampling rate : 48.0 KHz
Frame rate : 46.875 fps (1024 spf)
Compression mode : Lossy
Celay relative to video : 16ms
Stream size : 77.7 MiB (9%)
Default : Yes
Alternate group : 1
163444gr71xrxu9kluxtd7.jpg.jpg   163444izct5lpt8ip0x9ct.jpg.jpg   163444d735s3p8kio0au7c.jpg.jpg   163444mfrstb7mdsz7vzp8.jpg.jpg   163445pa8cnvnf1babrgbr.jpg.jpg   163445q3xrxd11lnw31z5m.jpg.jpg   163445pc26az5jh2atn25s.jpg.jpg   163445otzcstaan12qa3nk.jpg.jpg   163446cfsfhso2ifznys7u.jpg.jpg   163446k6led0b6o30767pz.jpg.jpg   163446tsc2sffiaiae3l4a.jpg.jpg   163446zlykq774hzff47js.jpg.jpg   163446hg8plpe2jj5y8l3j.jpg.jpg   163447o2t2p22t6622uhhd.jpg.jpg  


播放器: potplayer 下载地址:


4K版繁体/简体中文字幕【Marco.Polo.One.Hundred.Eyes.2015.4k.2160p.NF.WEBRip.X265-HEVC.AAC5.1.subtitles】

Marco.Polo.One.Hundred.Eyes.2015.4k.2160p.rar ( 26.98 KB )



马可波罗之百眼 Marco Polo: One Hundred Eyes 2015[2160P/MP4/891MB]百度云盘下载:

【4k美剧】马可波罗之百眼 Marco Polo One Hundred Eyes 2015 2160PMP4891MB百度云盘.txt ( 358 Bytes )


登录 发布 快速回复 返回顶部 返回列表