开启辅助访问
 找回密码
 立即注册
反斗智多星2 豆瓣评分: 6.6分 年份: 90年代 片长: 95 分钟 地区: 美国  类型: 喜剧 音乐  格式: 4K HDR  音轨: DTS-HD.MA 5.1  导演: 史蒂芬·瑟吉克 主演: 麦克·梅尔斯 / 达纳·卡维 / 蒂亚·卡雷尔 / 克里斯托弗·沃肯
预告片欣赏
取消
简介 :

  韦恩(麦克迈尔斯,「时空贱谍007」)与他的最佳搭档葛斯回来了!这次他们决定要举办一场摇滚音乐盛会--经由摇滚名人吉姆莫里森("门"合唱团主唱)鬼魂的帮助;不料就在韦恩忙得不可开交之时,他美丽的歌手女友卡珊卓(蒂雅卡瑞拉,「 魔鬼征服者 」、「 大法师 传奇」)却在经纪人的甜言蜜语怂恿下,决定嫁给他并搬到洛杉矶居住;如今,韦恩必须做出此生最困难的抉择:是心爱的女人重要,还是对音乐(有"空中史密斯"合唱团参与表演的演唱会)的热爱重要?韦恩能及时赶到洛杉矶阻止婚礼进行吗?

  • 电影下载
  • 资源INFO
  • 下载说明
  • 《反斗智多星2》4k电影 · 网盘/云盘/BT 下载  Cloud storage / Cloud disk / BT download

  • 《反斗智多星2》电影INFO  Video INFO
    Video
    ID : 1
    Format : HEVC
    Format/Info : High Efficiency Video Coding
    Format profile : Main 10@L5@High
    HDR format : SMPTE ST 2094 App 4, Version 1, HDR10+ Profile B compatible
    Codec ID : V_MPEGH/ISO/HEVC
    Duration : 1 h 34 min
    Bit rate : 24.7 Mb/s
    Width : 3 840 pixels
    Height : 2 076 pixels
    Display aspect ratio : 1.85:1
    Frame rate mode : Constant
    Frame rate : 23.976 (24000/1001) FPS
    Color space : YUV
    Chroma subsampling : 4:2:0 (Type 2)
    Bit depth : 10 bits
    Bits/(Pixel*Frame) : 0.129
    Stream size : 16.3 GiB (75%)
    Default : Yes
    Forced : No
    Color range : Limited
    Color primaries : BT.2020
    Transfer characteristics : PQ
    Matrix coefficients : BT.2020 non-constant
    Mastering display color primaries : Display P3
    Mastering display luminance : min: 0.0050 cd/m2, max: 4000 cd/m2
    Maximum Content Light Level : 1033 cd/m2
    Maximum Frame-Average Light Level : 439 cd/m2

    Audio #1
    ID : 2
    Format : MLP FBA
    Format/Info : Meridian Lossless Packing FBA
    Commercial name : Dolby TrueHD
    Codec ID : A_TRUEHD
    Duration : 1 h 34 min
    Bit rate mode : Variable
    Bit rate : 3 338 kb/s
    Maximum bit rate : 4 752 kb/s
    Channel(s) : 6 channels
    Channel layout : L R C LFE Ls Rs
    Sampling rate : 48.0 kHz
    Frame rate : 1 200.000 FPS (40 SPF)
    Compression mode : Lossless
    Delay relative to video : 2 s 0 ms
    Stream size : 2.21 GiB (10%)
    Title : TrueHD 5.1
    Language : English
    Default : Yes
    Forced : No

    Audio #2
    ID : 3
    Format : DTS XLL
    Format/Info : Digital Theater Systems
    Commercial name : DTS-HD Master Audio
    Codec ID : A_DTS
    Duration : 1 h 34 min
    Bit rate mode : Variable
    Bit rate : 3 770 kb/s
    Channel(s) : 6 channels
    Channel layout : C L R Ls Rs LFE
    Sampling rate : 48.0 kHz
    Frame rate : 93.750 FPS (512 SPF)
    Bit depth : 24 bits
    Compression mode : Lossless
    Delay relative to video : 2 s 0 ms
    Stream size : 2.49 GiB (11%)
    Title : DTS-HD MA 5.1
    Language : English
    Default : No
    Forced : No

    Audio #3
    ID : 4
    Format : AC-3
    Format/Info : Audio Coding 3
    Commercial name : Dolby Digital
    Codec ID : A_AC3
    Duration : 1 h 34 min
    Bit rate mode : Constant
    Bit rate : 640 kb/s
    Channel(s) : 6 channels
    Channel layout : L R C LFE Ls Rs
    Sampling rate : 48.0 kHz
    Frame rate : 31.250 FPS (1536 SPF)
    Compression mode : Lossy
    Delay relative to video : 2 s 0 ms
    Stream size : 433 MiB (2%)
    Title : DD 5.1
    Language : English
    Service kind : Complete Main
    Default : No
    Forced : No

    Audio #4
    ID : 5
    Format : AC-3
    Format/Info : Audio Coding 3
    Commercial name : Dolby Digital
    Codec ID : A_AC3
    Duration : 1 h 34 min
    Bit rate mode : Constant
    Bit rate : 384 kb/s
    Channel(s) : 6 channels
    Channel layout : L R C LFE Ls Rs
    Sampling rate : 48.0 kHz
    Frame rate : 31.250 FPS (1536 SPF)
    Compression mode : Lossy
    Stream size : 260 MiB (1%)
    Title : DD 5.1
    Language : English (US)
    Service kind : Complete Main
    Default : No
    Forced : No

    Text #1
    ID : 6
    Format : UTF-8
    Codec ID : S_TEXT/UTF8
    Codec ID/Info : UTF-8 Plain Text
    Duration : 1 h 34 min
    Bit rate : 90 b/s
    Frame rate : 0.311 FPS
    Count of elements : 1762
    Stream size : 62.5 KiB (0%)
    Title : English CC
    Language : English (US)
    Default : Yes
    Forced : No

    Text #2
    ID : 7
    Format : UTF-8
    Codec ID : S_TEXT/UTF8
    Codec ID/Info : UTF-8 Plain Text
    Duration : 1 h 31 min
    Bit rate : 86 b/s
    Frame rate : 0.169 FPS
    Count of elements : 929
    Stream size : 57.9 KiB (0%)
    Title : Arabic
    Language : Arabic
    Default : No
    Forced : No

    Text #3
    ID : 8
    Format : UTF-8
    Codec ID : S_TEXT/UTF8
    Codec ID/Info : UTF-8 Plain Text
    Duration : 1 h 31 min
    Bit rate : 90 b/s
    Frame rate : 0.169 FPS
    Count of elements : 929
    Stream size : 60.7 KiB (0%)
    Title : Bulgarian
    Language : Bulgarian
    Default : No
    Forced : No

    Text #4
    ID : 9
    Format : UTF-8
    Codec ID : S_TEXT/UTF8
    Codec ID/Info : UTF-8 Plain Text
    Duration : 1 h 31 min
    Bit rate : 54 b/s
    Frame rate : 0.209 FPS
    Count of elements : 1146
    Stream size : 36.3 KiB (0%)
    Title : Chinese Mandarin Traditional
    Language : Mandarin (Hant)
    Default : No
    Forced : No

    Text #5
    ID : 10
    Format : UTF-8
    Codec ID : S_TEXT/UTF8
    Codec ID/Info : UTF-8 Plain Text
    Duration : 1 h 31 min
    Bit rate : 55 b/s
    Frame rate : 0.170 FPS
    Count of elements : 935
    Stream size : 37.4 KiB (0%)
    Title : Danish
    Language : Danish
    Default : No
    Forced : No

    Text #6
    ID : 11
    Format : UTF-8
    Codec ID : S_TEXT/UTF8
    Codec ID/Info : UTF-8 Plain Text
    Duration : 1 h 31 min
    Bit rate : 59 b/s
    Frame rate : 0.169 FPS
    Count of elements : 930
    Stream size : 39.6 KiB (0%)
    Title : German
    Language : German (DE)
    Default : No
    Forced : No

    Text #7
    ID : 12
    Format : UTF-8
    Codec ID : S_TEXT/UTF8
    Codec ID/Info : UTF-8 Plain Text
    Duration : 1 h 31 min
    Bit rate : 52 b/s
    Frame rate : 0.180 FPS
    Count of elements : 990
    Stream size : 35.5 KiB (0%)
    Title : Spanish Latin American
    Language : Spanish (Latin America)
    Default : No
    Forced : No

    Text #8
    ID : 13
    Format : UTF-8
    Codec ID : S_TEXT/UTF8
    Codec ID/Info : UTF-8 Plain Text
    Duration : 1 h 31 min
    Bit rate : 51 b/s
    Frame rate : 0.171 FPS
    Count of elements : 939
    Stream size : 34.3 KiB (0%)
    Title : Finnish
    Language : Finnish
    Default : No
    Forced : No

    Text #9
    ID : 14
    Format : UTF-8
    Codec ID : S_TEXT/UTF8
    Codec ID/Info : UTF-8 Plain Text
    Duration : 1 h 31 min
    Bit rate : 54 b/s
    Frame rate : 0.169 FPS
    Count of elements : 930
    Stream size : 36.7 KiB (0%)
    Title : French European
    Language : French (FR)
    Default : No
    Forced : No

    Text #10
    ID : 15
    Format : UTF-8
    Codec ID : S_TEXT/UTF8
    Codec ID/Info : UTF-8 Plain Text
    Duration : 1 h 31 min
    Bit rate : 90 b/s
    Frame rate : 0.169 FPS
    Count of elements : 929
    Stream size : 60.5 KiB (0%)
    Title : Hebrew
    Language : Hebrew
    Default : No
    Forced : No

    Text #11
    ID : 16
    Format : UTF-8
    Codec ID : S_TEXT/UTF8
    Codec ID/Info : UTF-8 Plain Text
    Duration : 1 h 31 min
    Bit rate : 58 b/s
    Frame rate : 0.169 FPS
    Count of elements : 930
    Stream size : 39.3 KiB (0%)
    Title : Hungarian
    Language : Hungarian
    Default : No
    Forced : No

    Text #12
    ID : 17
    Format : UTF-8
    Codec ID : S_TEXT/UTF8
    Codec ID/Info : UTF-8 Plain Text
    Duration : 1 h 31 min
    Bit rate : 57 b/s
    Frame rate : 0.177 FPS
    Count of elements : 974
    Stream size : 38.8 KiB (0%)
    Title : Italian
    Language : Italian
    Default : No
    Forced : No

    Text #13
    ID : 18
    Format : UTF-8
    Codec ID : S_TEXT/UTF8
    Codec ID/Info : UTF-8 Plain Text
    Duration : 1 h 31 min
    Bit rate : 56 b/s
    Frame rate : 0.206 FPS
    Count of elements : 1132
    Stream size : 37.8 KiB (0%)
    Title : Korean
    Language : Korean
    Default : No
    Forced : No

    Text #14
    ID : 19
    Format : UTF-8
    Codec ID : S_TEXT/UTF8
    Codec ID/Info : UTF-8 Plain Text
    Duration : 1 h 31 min
    Bit rate : 57 b/s
    Frame rate : 0.169 FPS
    Count of elements : 929
    Stream size : 38.7 KiB (0%)
    Title : Dutch
    Language : Dutch (NL)
    Default : No
    Forced : No

    Text #15
    ID : 20
    Format : UTF-8
    Codec ID : S_TEXT/UTF8
    Codec ID/Info : UTF-8 Plain Text
    Duration : 1 h 31 min
    Bit rate : 53 b/s
    Frame rate : 0.172 FPS
    Count of elements : 944
    Stream size : 36.2 KiB (0%)
    Title : Norwegian
    Language : Norwegian
    Default : No
    Forced : No

    Text #16
    ID : 21
    Format : UTF-8
    Codec ID : S_TEXT/UTF8
    Codec ID/Info : UTF-8 Plain Text
    Duration : 1 h 31 min
    Bit rate : 50 b/s
    Frame rate : 0.169 FPS
    Count of elements : 926
    Stream size : 33.6 KiB (0%)
    Title : Portuguese Brazilian
    Language : Portuguese (BR)
    Default : No
    Forced : No

    Text #17
    ID : 22
    Format : UTF-8
    Codec ID : S_TEXT/UTF8
    Codec ID/Info : UTF-8 Plain Text
    Duration : 1 h 31 min
    Bit rate : 55 b/s
    Frame rate : 0.169 FPS
    Count of elements : 930
    Stream size : 37.1 KiB (0%)
    Title : Portuguese European
    Language : Portuguese (PT)
    Default : No
    Forced : No

    Text #18
    ID : 23
    Format : UTF-8
    Codec ID : S_TEXT/UTF8
    Codec ID/Info : UTF-8 Plain Text
    Duration : 1 h 31 min
    Bit rate : 103 b/s
    Frame rate : 0.262 FPS
    Count of elements : 1436
    Stream size : 69.1 KiB (0%)
    Title : Russian
    Language : Russian
    Default : No
    Forced : No

    Text #19
    ID : 24
    Format : UTF-8
    Codec ID : S_TEXT/UTF8
    Codec ID/Info : UTF-8 Plain Text
    Duration : 1 h 31 min
    Bit rate : 56 b/s
    Frame rate : 0.171 FPS
    Count of elements : 936
    Stream size : 37.8 KiB (0%)
    Title : Swedish
    Language : Swedish
    Default : No
    Forced : No

    Text #20
    ID : 25
    Format : UTF-8
    Codec ID : S_TEXT/UTF8
    Codec ID/Info : UTF-8 Plain Text
    Duration : 1 h 31 min
    Bit rate : 131 b/s
    Frame rate : 0.236 FPS
    Count of elements : 1293
    Stream size : 87.8 KiB (0%)
    Title : Thai
    Language : Thai
    Default : No
    Forced : No

    Text #21
    ID : 26
    Format : UTF-8
    Codec ID : S_TEXT/UTF8
    Codec ID/Info : UTF-8 Plain Text
    Duration : 1 h 31 min
    Bit rate : 56 b/s
    Frame rate : 0.175 FPS
    Count of elements : 963
    Stream size : 38.1 KiB (0%)
    Title : Turkish
    Language : Turkish
    Default : No
    Forced : No

    Text #22
    ID : 27
    Format : UTF-8
    Codec ID : S_TEXT/UTF8
    Codec ID/Info : UTF-8 Plain Text
    Duration : 1 h 31 min
    Bit rate : 40 b/s
    Frame rate : 0.171 FPS
    Count of elements : 941
    Stream size : 26.9 KiB (0%)
    Title : Chinese Cantonese Traditional
    Language : Cantonese (Hant)
    Default : No
    Forced : No

    Text #23
    ID : 28
    Format : PGS
    Muxing mode : zlib
    Codec ID : S_HDMV/PGS
    Codec ID/Info : Picture based subtitle format used on BDs/HD-DVDs
    Duration : 1 h 31 min
    Bit rate : 41.9 kb/s
    Frame rate : 0.511 FPS
    Count of elements : 2802
    Stream size : 27.4 MiB (0%)
    Title : English
    Language : English
    Default : No
    Forced : No

    Text #24
    ID : 29
    Format : PGS
    Muxing mode : zlib
    Codec ID : S_HDMV/PGS
    Codec ID/Info : Picture based subtitle format used on BDs/HD-DVDs
    Duration : 1 h 31 min
    Bit rate : 47.7 kb/s
    Frame rate : 0.579 FPS
    Count of elements : 3191
    Stream size : 31.3 MiB (0%)
    Title : English SDH
    Language : English
    Default : No
    Forced : No

    Text #25
    ID : 30
    Format : PGS
    Muxing mode : zlib
    Codec ID : S_HDMV/PGS
    Codec ID/Info : Picture based subtitle format used on BDs/HD-DVDs
    Duration : 1 h 31 min
    Bit rate : 32.7 kb/s
    Frame rate : 0.339 FPS
    Count of elements : 1860
    Stream size : 21.4 MiB (0%)
    Language : French
    Default : No
    Forced : No

    Text #26
    ID : 31
    Format : PGS
    Muxing mode : zlib
    Codec ID : S_HDMV/PGS
    Codec ID/Info : Picture based subtitle format used on BDs/HD-DVDs
    Duration : 1 h 31 min
    Bit rate : 32.4 kb/s
    Frame rate : 0.337 FPS
    Count of elements : 1852
    Stream size : 21.2 MiB (0%)
    Language : Spanish
    Default : No
    Forced : No

    Text #27
    ID : 32
    Format : PGS
    Muxing mode : zlib
    Codec ID : S_HDMV/PGS
    Codec ID/Info : Picture based subtitle format used on BDs/HD-DVDs
    Duration : 1 h 31 min
    Bit rate : 32.1 kb/s
    Frame rate : 0.337 FPS
    Count of elements : 1852
    Stream size : 21.0 MiB (0%)
    Language : Portuguese
    Default : No
    Forced : No

    Menu
    00:00:00.000 : en:Chapter 01
    00:02:29.107 : en:Chapter 02
    00:06:37.272 : en:Chapter 03
    00:10:16.074 : en:Chapter 04
    00:12:22.826 : en:Chapter 05
    00:19:30.712 : en:Chapter 06
    00:26:11.154 : en:Chapter 07
    00:32:45.715 : en:Chapter 08
    00:36:55.006 : en:Chapter 09
    00:41:17.936 : en:Chapter 10
    00:46:48.808 : en:Chapter 11
    00:51:04.314 : en:Chapter 12
    00:52:37.741 : en:Chapter 13
    00:54:03.535 : en:Chapter 14
    00:58:38.893 : en:Chapter 15
    01:00:30.171 : en:Chapter 16
    01:05:16.458 : en:Chapter 17
    01:14:30.345 : en:Chapter 18
    01:15:33.950 : en:Chapter 19
    01:23:18.331 : en:Chapter 20
    01:26:54.172 : en:Chapter 21



    《反斗智多星2》4k电影 · 网盘/云盘/BT 下载  Cloud storage / Cloud disk / BT download
  • 下载本版资源三步骤
    1、在《4K电影列表》找到并打开电影下载页,点击下载框按钮或复制磁力链,将BT种子下载到电脑中。
    2、电脑安装《BT下载软件》,免费的推荐使用《UTorrent》下载,收费的推荐使用《115网盘》下载(速度又快又稳).
    3、用BT下载软件,打开BT种子、或将磁力链复制粘贴到BT软件中即可下载。


    下载速度慢怎么办
    1、正常情况使用《UTorrent》跟着网站发布资源节奏下载速度很快,可以达到宽带最大速度(电信)
    2、推荐使用《115网盘》下载速度又快又稳定,请勿使用迅雷下载;
    3、下载慢是有多方面原因,即依赖种子的热度、也要求是电信宽带(非移动/联通),同时选择对的下载软件和软件设置方法。
    4、使用BT协议下载没有速度,请更新《Trackers服务器》能够增加在线用户(越多越好),该方法使用《UTorrent》下载效果显著。
    更多下载问题参考: 4K电影下载新手学院>>

    多个种子/电影版本区别
    蓝光原盘BDMV
    俗称4K蓝光原盘,也就是从4K UHD蓝光碟中提取出来的源文件,由多个m2ts文件组成,与正版盘完全一致,且包含了光盘所有内容 (影片花絮、字幕、导航菜单、多语言多音轨、HDR 信息)等等,文件体积大,一部电影约有60GB+。此版本资源一般以「BDMV 文件夹」或「BDISO」 (iso) 格式发布;该版本可以用刻录机成带导航的光盘效果。

    DIY蓝光原盘BDMV
    经资源制作组基于蓝光原盘BDMV版本进行第二次DIY的版本,将片头AE特效、画面HDR调色、封装国语音轨、封装中文简体/繁体/英文等多语言字幕,更精彩的是是特效字幕(将电影画面中某些细节翻译成中文字幕)。

    蓝光BD-REMUX
    俗称REMUX,可以视为「音画质无损的精简版」"4K原盘",它其实就是将原盘里多余的一些音轨、花絮、菜单、字幕等东西移除或精简,仅保留主要的视频、主要音轨和部分语言字幕,然后再封装成「单个文件」的 .mkv 格式而来,其音质画质与BDMV蓝光原盘一致,但文件体积上能大幅缩减且成单个文件,在电脑上播放/管理/电视播放/播放器播放和分享起来也更方便。适合追求原盘音画质、不重视花絮周边内容、又希望稍微节省点硬盘空间的朋友。

    WEB-DL/WEBRip/流媒体版本
    WEB-DL 或 WEBRip 格式的影片主要来自 、Amazon Prime Video、Netflix、Hulu、YouTube 等「在线网络高清片源」。尽管这些服务提供了4K分辨率 (部分含 HDR) 的片源,但它们为了在线观看的流畅性,都会将视频画质进行较大幅度「有损压缩」。 WEB-DL 是 Web Download 的意思,指通过技术手段「直接下载」回来的在线视频 WEBRip 很多时候则是通过"屏幕转录"等方式二次录制,会造成多一次的画质损失。



    《反斗智多星2》4k电影 · 网盘/云盘/BT 下载  Cloud storage / Cloud disk / BT download
反斗智多星2 4k.Waynes.World.2.1993.2160p.WEB-DL.x265.10bit.HDR10Plus.DTS-HD.MA.TrueHD.5.1-4k电影下载

反斗智多星2 4k.Waynes.World.2.1993.2160p.WEB-DL.x265.10bit.HDR10Plus.DTS-HD.MA.TrueHD.5.1【21.77 GB】

Waynes.World.2.1993.2160p.WEB-DL.x265.10bit.HDR10Plus.DTS-HD.MA.TrueHD.5.1-NOGRP.torrent ( 27.78 KB )




最新回复
还没人回复...
登录 发布 快速回复 返回顶部 返回列表