开启辅助访问
 找回密码
 立即注册

北京4K宣传片 The Best Of Beijing 自youtube

#8K视频#时间:2023-05-23 阅读:192 回复:0
135725oa9qxjklqg9pjg4w.jpg.jpg 135726ukibr2p1inrb4ubr.jpg.jpg 135726kp6sypuxu0niu3zi.jpg.jpg 135727z2jhrrz2oy7yt1yy.jpg.jpg 135727ov5flp1llgfwss4z.jpg.jpg 135728nnzmuuauafhxnaax.jpg.jpg 135728ezeys3zd3v2svss2.jpg.jpg 135729h8icbks1nj713jk3.jpg.jpg 135729ypux3vzegkev4knp.jpg.jpg 135730s0yyb1g7skigse4i.jpg.jpg 135730x2dgojgy9dddgiyo.jpg.jpg



info
General
Unique ID                      : 245851523139804696104953542011941335499 (0xB8F547F18126819C3B8A79D803CCB1CB)
Complete name                  : C:\Users\\Desktop\THE BEST OF BEIJING 4K.mkv
Format                         : Matroska
Format version                 : Version 4 / Version 2
File size                      : 267 MiB
Duration                       : 7 min 15 s
Overall bit rate               : 5 150 kb/s
Encoded date                   : UTC 2019-02-24 07:31:34
Writing application            : mkvmerge v25.0.0 ('Prog Noir') 64-bit
Writing library                : libebml v1.3.6 + libmatroska v1.4.9 / Lavf58.12.100

Video
ID                             : 1
Format                         : HEVC
Format/Info                    : High Efficiency Video Coding
Format profile                 : Main@L5@Main
Codec ID                       : V_MPEGH/ISO/HEVC
Duration                       : 7 min 15 s
Bit rate                       : 3 513 kb/s
Width                          : 3 840 pixels
Height                         : 1 620 pixels
Display aspect ratio           : 2.40:1
Frame rate mode                : Variable
Frame rate                     : 25.000 FPS
Original frame rate            : 26.737 FPS
Color space                    : YUV
Chroma subsampling             : 4:2:0
Bit depth                      : 8 bits
Bits/(Pixel*Frame)             : 0.023
Stream size                    : 182 MiB (68%)
Writing library                : x265 1.9:[Windows][GCC 4.9.3][32 bit] 8bit
Encoding settings              : wpp / ctu=64 / min-cu-size=8 / max-tu-size=32 / tu-intra-depth=1 / tu-inter-depth=1 / me=1 / subme=2 / merange=57 / no-rect / no-amp / max-merge=2 / temporal-mvp / no-early-skip / rdpenalty=0 / no-tskip / no-tskip-fast / strong-intra-smoothing / no-lossless / no-cu-lossless / no-constrained-intra / no-fast-intra / open-gop / no-temporal-layers / interlace=0 / keyint=250 / min-keyint=25 / scenecut=40 / rc-lookahead=20 / lookahead-slices=8 / bframes=4 / bframe-bias=0 / b-adapt=2 / ref=3 / limit-refs=3 / no-limit-modes / weightp / no-weightb / aq-mode=1 / qg-size=32 / aq-strength=1.00 / cbqpoffs=0 / crqpoffs=0 / rd=3 / psy-rd=2.00 / rdoq-level=0 / psy-rdoq=0.00 / signhide / deblock / sao / no-sao-non-deblock / b-pyramid / cutree / no-intra-refresh / rc=abr / bitrate=3947 / qcomp=0.60 / qpmin=0 / qpmax=51 / qpstep=4 / ipratio=1.40 / pbratio=1.30
Language                       : English
Default                        : Yes
Forced                         : No

Audio #1
ID                             : 2
Format                         : DTS
Format/Info                    : Digital Theater Systems
Codec ID                       : A_DTS
Duration                       : 7 min 15 s
Bit rate mode                  : Constant
Bit rate                       : 1 510 kb/s
Channel(s)                     : 6 channels
Channel positions              : Front: L C R, Side: L R, LFE
Sampling rate                  : 48.0 kHz
Frame rate                     : 93.750 FPS (512 SPF)
Bit depth                      : 24 bits
Compression mode               : Lossy
Delay relative to video        : 7 ms
Stream size                    : 78.3 MiB (29%)
Language                       : Chinese
Default                        : No
Forced                         : No

Audio #2
ID                             : 3
Format                         : Opus
Codec ID                       : A_OPUS
Duration                       : 7 min 15 s
Bit rate                       : 124 kb/s
Channel(s)                     : 2 channels
Channel positions              : Front: L R
Sampling rate                  : 48.0 kHz
Frame rate                     : 50.000 FPS (960 SPF)
Compression mode               : Lossy
Delay relative to video        : 8 ms
Stream size                    : 6.41 MiB (2%)
Language                       : Chinese
Default                        : Yes
Forced                         : No


北京4K宣传片 The Best Of Beijing 下载自youtube,youtube上已经火了。4k极限画质下的北京,感受没有雾霾的帝都。


THE BEST OF BEIJING 4K.txt ( 70 Bytes )

登录 发布 快速回复 返回顶部 返回列表