开启辅助访问
 找回密码
 立即注册

[4K自然纪录片] 南美洲野生动物奇观 2017 [2160P/MKV/6.15GB]

#8K视频#时间:2023-05-23 阅读:119 回复:0
[4K(超高清)自然纪录片] 南美洲野生动物奇观 2017 [2160P/MKV/6.15GB]
(无配乐•大自然的声音)

141356lbcz6pzxbpbczb6b.jpg.jpg

General
Unique ID : 189004430794658430912497311968647793442 (0x8E30EDE5E119E35B90AD8318E8CD4B22)
Complete name : Wildlife Wonders of South America  4K RELAXATION VIDEO Chile & Bolivia (Nature Sounds Only),Мастер5.mkv
Format : Matroska
Format version : Version 4 / Version 2
File size : 6.15 GiB
Duration : 1 h 0 min
Overall bit rate : 14.5 Mbps
Movie name : Wildlife Wonders of South America  4K RELAXATION VIDEO Chile & Bolivia (Nature Sounds Only),Мастер5
Encoded date : UTC 2017-06-06 17:51:46
Writing application : mkvmerge v8.1.0 ('Psychedelic Postcard') 32bit
Writing library : libebml v1.3.1 + libmatroska v1.4.2

Video
ID : 1
Format : AVC
Format/Info : Advanced Video Codec
Format profile : High@L5.1
Format settings, CABAC : No
Format settings, ReFrames : 2 frames
Codec ID : V_MPEG4/ISO/AVC
Duration : 1 h 0 min
Bit rate : 14.4 Mbps
Width : 3840 pixels
Height : 2160 pixels
Display aspect ratio : 16:9
Frame rate mode : Constant
Frame rate : 23.976 (24000/1001) FPS
Color space : YUV
Chroma subsampling : 4:2:0
Bit depth : 8 bits
Scan type : Progressive
Bits/(Pixel*Frame) : 0.072
Stream size : 6.10 GiB (99%)
Title : Wildlife Wonders of South America  4K RELAXATION VIDEO Chile & Bolivia (Nature Sounds Only),Мастер5
Default : Yes
Forced : No
Color range : Limited
Color primaries : BT.709
Transfer characteristics : BT.709
Matrix coefficients : BT.709

Audio
ID : 2
Format : AAC
Format/Info : Advanced Audio Codec
Format profile : LC
Codec ID : A_AAC
Duration : 1 h 0 min
Bit rate : 126 kbps
Channel(s) : 2 channels
Channel positions : Front: L R
Sampling rate : 44.1 kHz
Frame rate : 43.066 FPS (1024 spf)
Compression mode : Lossy
Stream size : 54.6 MiB (1%)
Default : Yes
Forced : No


141356lvnna5tv156i5t93.jpg.jpg 141357ltedyzaoss2ayyeq.jpg.jpg

141357e16s8o3e86j03918.jpg.jpg

建议使用极速迅雷来高速下载!


[www.1080pro.net]Wildlife Wonders of South America 4K RELAXATION VIDEO Chile amp;a.torrent.net]Wildlife Wonders of South America 4K RELAXATION VIDEO Chile  ( 124.34 KB )



登录 发布 快速回复 返回顶部 返回列表