开启辅助访问
 找回密码
 立即注册

CCTV 2019春节联欢晚会4K UHD超高清4K频道节目资源!63.3GB

#8K视频#时间:2023-05-23 阅读:246 回复:0
CCTV《2019春节联欢晚会》 4K UHD超高清4K频道节目资源!

141556pccflmhrfyzgixl0.jpg.jpg

141556ka83mhma1hp1j88m.jpg.jpg 141557gfdfbol0z6bmqzjj.jpg.jpg

141557resn7lz8xscepsp8.jpg.jpg 141558r1zunlzwprx4v4ul.jpg.jpg

141558oxx10sp7o13soksp.jpg.jpg 141559e73f33kt39f232at.jpg.jpg

影片参数

  1. General
  2. ID                             : 64 (0x40)
  3. Complete name                  : E:\内部\好4K\4K首发资源\2019年春节联欢晚会.ts
  4. Format                         : MPEG-TS
  5. File size                      : 63.3 GiB
  6. Duration                       : 4 h 59 min
  7. Overall bit rate mode          : Variable
  8. Overall bit rate               : 30.2 Mb/s


  9. Video
  10. ID                             : 160 (0xA0)
  11. Menu ID                        : 6401 (0x1901)
  12. Format                         : HEVC
  13. Format/Info                    : High Efficiency Video Coding
  14. Format profile                 : Main 10@L5@Main
  15. Codec ID                       : 36
  16. Duration                       : 25 h 24 min
  17. Bit rate                       : 28.1 Mb/s
  18. Width                          : 3 840 pixels
  19. Height                         : 2 160 pixels
  20. Display aspect ratio           : 16:9
  21. Frame rate                     : 50.000 FPS
  22. Standard                       : Component
  23. Color space                    : YUV
  24. Chroma subsampling             : 4:2:0 (Type 0)
  25. Bit depth                      : 10 bits
  26. Bits/(Pixel*Frame)             : 0.068
  27. Stream size                    : 300 GiB
  28. Color range                    : Limited
  29. Color primaries                : BT.709
  30. Transfer characteristics       : BT.709
  31. Matrix coefficients            : BT.709


  32. Audio #1
  33. ID                             : 80 (0x50)
  34. Menu ID                        : 6401 (0x1901)
  35. Format                         : MPEG Audio
  36. Format version                 : Version 1
  37. Format profile                 : Layer 2
  38. Codec ID                       : 4
  39. Duration                       : 4 h 59 min
  40. Bit rate mode                  : Constant
  41. Bit rate                       : 128 kb/s
  42. Channel(s)                     : 2 channels
  43. Sampling rate                  : 48.0 kHz
  44. Frame rate                     : 41.667 FPS (1152 SPF)
  45. Compression mode               : Lossy
  46. Delay relative to video        : -320 ms
  47. Stream size                    : 275 MiB (0%)


  48. Audio #2
  49. ID                             : 81 (0x51)
  50. Menu ID                        : 6401 (0x1901)
  51. Format                         : AC-3
  52. Format/Info                    : Audio Coding 3
  53. Commercial name                : Dolby Digital
  54. Codec ID                       : 129
  55. Duration                       : 4 h 59 min
  56. Bit rate mode                  : Constant
  57. Bit rate                       : 448 kb/s
  58. Channel(s)                     : 6 channels
  59. Channel layout                 : L R C LFE Ls Rs
  60. Sampling rate                  : 48.0 kHz
  61. Frame rate                     : 31.250 FPS (1536 SPF)
  62. Bit depth                      : 16 bits
  63. Compression mode               : Lossy
  64. Delay relative to video        : -304 ms
  65. Stream size                    : 961 MiB (1%)


    CCTV《2019春节联欢晚会》 4K UHD超高清4K频道节目资源下载


    CCTV 2019春节联欢晚会4K UHD超高清4K频道节目资源.txt ( 117 Bytes )



登录 发布 快速回复 返回顶部 返回列表