开启辅助访问
 找回密码
 立即注册

第七届世界军人运动会开幕式

#8K视频#时间:2023-05-23 阅读:178 回复:0
节目简介:
    第七届世界军人运动会开幕式于2019年10月18日晚在武汉体育中心举行,中共中央总书记、国家主席、中央军委主席习近平出席开幕式并宣布运动会开幕。
    第七届世界军人运动会开幕式总导演为杨笑阳,全程持续约2小时20分钟,包括文艺表演前仪式部分、文艺表演部分、文艺表演后仪式部分。
    第七届世界军人运动会是我国第一次承办的综合性国际军事体育赛事,也是继北京奥运会后我国举办的规模最大的国际体育盛会。来自109个国家的9300余名军体健儿将在江城武汉同场竞技、增进友谊。


General
ID                             : 1 (0x1)
Complete name                  : E:\下载\7th.CISM.Military.World.Games.Opening.Ceremony.20191018.2160p.CCTV-4K.UHDTV.HEVC.10bit.HDR.DD5.1-FLTTH.ts
Format                         : MPEG-TS
File size                      : 36.0 GiB
Duration                       : 2 h 25 min
Overall bit rate mode          : Variable
Overall bit rate               : 35.4 Mb/s

Video
ID                             : 7010 (0x1B62)
Menu ID                        : 701 (0x2BD)
Format                         : HEVC
Format/Info                    : High Efficiency Video Coding
Format profile                 : Main 10@L5@High
Codec ID                       : 36
Duration                       : 2 h 25 min
Bit rate                       : 33.2 Mb/s
Width                          : 3 840 pixels
Height                         : 2 160 pixels
Display aspect ratio           : 16:9
Frame rate                     : 50.000 FPS
Standard                       : Component
Color space                    : YUV
Chroma subsampling             : 4:2:0 (Type 0)
Bit depth                      : 10 bits
Bits/(Pixel*Frame)             : 0.080
Stream size                    : 33.7 GiB (94%)
Color range                    : Limited
Color primaries                : BT.2020
Transfer characteristics       : HLG
Matrix coefficients            : BT.2020 non-constant

Audio
ID                             : 7011 (0x1B63)
Menu ID                        : 701 (0x2BD)
Format                         : AC-3
Format/Info                    : Audio Coding 3
Commercial name                : Dolby Digital
Codec ID                       : 129
Duration                       : 2 h 25 min
Bit rate mode                  : Constant
Bit rate                       : 448 kb/s
Channel(s)                     : 6 channels
Channel layout                 : L R C LFE Ls Rs
Sampling rate                  : 48.0 kHz
Frame rate                     : 31.250 FPS (1536 SPF)
Bit depth                      : 16 bits
Compression mode               : Lossy
Delay relative to video        : -139 ms
Stream size                    : 467 MiB (1%)


游客,如果您要查看本帖隐藏内容请回复


登录 发布 快速回复 返回顶部 返回列表