开启辅助访问
 找回密码
 立即注册

[4K.50fps][46.4G]庆祝中华人民共和国成立70周年大会

#8K视频#时间:2023-05-23 阅读:184 回复:0
143016b9ybec16eyqyerlv.jpg.jpg 143017qfnouzdptwnnvk6x.jpg.jpg 143018mxx2ma8g8agaga89.jpg.jpg 143018ckun0wc067cbwwhe.jpg.jpg 143035xhqbkbu11b98iei1.jpg.jpg



文件信息:
General
ID                             : 36 (0x24)
Complete name                  : I:\Celebration.of.the.70th.Anniversary.of.the.Founding.of.The.PRC.20191001.CCTV-4K.UHDTV.HEVC.10bit.HDR.DD5.1-FLTTH.ts
Format                         : MPEG-TS
File size                      : 46.5 GiB
Duration                       : 3 h 8 min
Overall bit rate mode          : Variable
Overall bit rate               : 35.4 Mb/s

Video
ID                             : 7010 (0x1B62)
Menu ID                        : 701 (0x2BD)
Format                         : HEVC
Format/Info                    : High Efficiency Video Coding
Format profile                 : Main 10@L5@High
Codec ID                       : 36
Duration                       : 19 h 32 min
Bit rate                       : 33.2 Mb/s
Width                          : 3 840 pixels
Height                         : 2 160 pixels
Display aspect ratio           : 16:9
Frame rate                     : 50.000 FPS
Standard                       : Component
Color space                    : YUV
Chroma subsampling             : 4:2:0 (Type 0)
Bit depth                      : 10 bits
Bits/(Pixel*Frame)             : 0.080
Stream size                    : 272 GiB
Color range                    : Limited
Color primaries                : BT.2020
Transfer characteristics       : HLG
Matrix coefficients            : BT.2020 non-constant

Audio
ID                             : 7011 (0x1B63)
Menu ID                        : 701 (0x2BD)
Format                         : AC-3
Format/Info                    : Audio Coding 3
Commercial name                : Dolby Digital
Codec ID                       : 6
Duration                       : 3 h 8 min
Bit rate mode                  : Constant
Bit rate                       : 448 kb/s
Channel(s)                     : 6 channels
Channel layout                 : L R C LFE Ls Rs
Sampling rate                  : 48.0 kHz
Frame rate                     : 31.250 FPS (1536 SPF)
Bit depth                      : 16 bits
Compression mode               : Lossy
Delay relative to video        : -366 ms
Stream size                    : 603 MiB (1%)
Service kind                   : Complete Main

Menu
ID                             : 7015 (0x1B67)
Menu ID                        : 701 (0x2BD)
Duration                       : 3 h 8 min
List                           : 7010 (0x1B62) (HEVC) / 7011 (0x1B63) (AC-3)
Service name                   : CCTV-4K超高清
Service provider               : BGCTV
Service type                   : user defined

游客,如果您要查看本帖隐藏内容请回复

解压密码:+1s
登录 发布 快速回复 返回顶部 返回列表