开启辅助访问
 找回密码
 立即注册

大世界之旅 第一季•第十一集 2017(高码率)[2160P/MKV/20.2GB]

#8K视频#时间:2023-05-23 阅读:253 回复:0
4K真人秀]大世界之旅 第一季•第十一集 2017(高码率)[2160P/MKV/20.2GB]
143251qait4tro7oooooqi.jpg.jpg

译  名:大世界之旅

片  名:The Grand Tour

年  代:2017

国  家:英国

类  别:真人秀 / 喜剧

语  言:英语

字       幕:英文

音       频:AC-3 5.1

视频尺寸:3840 x 2160

文件大小:20.2 GiB

片  长:60 分钟

导  演:Phil Churchward 菲尔·查沃德

                 Kit Lynch Robinson 凯特·林奇·罗宾森

主  演:Jeremy Clarkson 杰里米·克拉克森

                 Richard Hammond 理查德·哈蒙德

                 James May 詹姆斯·梅

                 Mike Skinner 麦克·斯金纳

简介:

This week the Grand Tour tent is on the shores of Loch Ness in Scotland, from where Jeremy Clarkson, Richard Hammond and James May introduce their experiences of buying used Maseratis with their own money and then using them to tour the drizzle flecked landscapes of the North of France. Along the way, they encounter worrying noises, unusual electronics, a small engine fire, and the cruel delight of watching James trying to drive with a broken arm. Also in this programme, Richard is at the Eboladrome track trying out the Abarth 124 Spider as he discovers if it's a real Italian sports car or just a Mazda in a fancy suit. Plus, gold medal winning Olympic cyclist turned car racer Sir Chris Hoy arrives to try Celebrity Brain Crash and Jeremy has an innovative way to install cutting edge features in an older car.

General
Unique ID : 252298650216592508206751026961758248731 (0xBDCEF3D988CF0F348C02C353F04F5F1B)
Complete name : The.Grand.Tour.S01E11.2160p.AMZN.WEBRip.DD5.1.x264-TrollUHD.mkv
Format : Matroska
Format version : Version 4 / Version 2
File size : 20.2 GiB
Duration : 1 h 0 min
Overall bit rate : 47.9 Mbps
Encoded date : UTC 2017-01-21 21:42:20
Writing application : mkvmerge v8.3.0 ('Over the Horizon') 64bit
Writing library : libebml v1.3.1 + libmatroska v1.4.2

Video
ID : 1
Format : AVC
Format/Info : Advanced Video Codec
Format profile : High@L5.1
Format settings, CABAC : Yes
Format settings, ReFrames : 5 frames
Codec ID : V_MPEG4/ISO/AVC
Duration : 1 h 0 min
Bit rate : 47.2 Mbps
Width : 3840 pixels
Height : 2160 pixels
Display aspect ratio : 16:9
Frame rate mode : Constant
Frame rate : 23.976 (24000/1001) FPS
Color space : YUV
Chroma subsampling : 4:2:0
Bit depth : 8 bits
Scan type : Progressive
Bits/(Pixel*Frame) : 0.238
Stream size : 19.9 GiB (99%)
Writing library : x264 core 148 r2638 7599210
Encoding settings : cabac=1 / ref=5 / deblock=1:-3:-3 / analyse=0x3:0x133 / me=umh / subme=10 / psy=1 / psy_rd=1.00:0.00 / mixed_ref=1 / me_range=48 / chroma_me=1 / trellis=2 / 8x8dct=1 / cqm=0 / deadzone=21,11 / fast_pskip=1 / chroma_qp_offset=-2 / threads=48 / lookahead_threads=8 / sliced_threads=0 / nr=0 / decimate=0 / interlaced=0 / bluray_compat=0 / constrained_intra=0 / bframes=8 / b_pyramid=2 / b_adapt=2 / b_bias=0 / direct=3 / weightb=1 / open_gop=0 / weightp=2 / keyint=240 / keyint_min=23 / scenecut=40 / intra_refresh=0 / rc_lookahead=60 / rc=crf / mbtree=1 / crf=17.0 / qcomp=0.70 / qpmin=0 / qpmax=69 / qpstep=4 / vbv_maxrate=300000 / vbv_bufsize=300000 / crf_max=0.0 / nal_hrd=none / filler=0 / ip_ratio=1.40 / aq=1:0.70
Default : Yes
Forced : No

Audio
ID : 2
Format : E-AC-3
Format/Info : Enhanced Audio Coding 3
Format settings, Endianness : Big
Codec ID : A_EAC3
Duration : 1 h 0 min
Bit rate mode : Constant
Bit rate : 640 kbps
Channel(s) : 6 channels
Channel positions : Front: L C R, Side: L R, LFE
Sampling rate : 48.0 kHz
Frame rate : 187.500 FPS (256 spf)
Compression mode : Lossy
Stream size : 276 MiB (1%)
Language : English
Default : Yes
Forced : No

Text #1
ID : 3
Format : UTF-8
Codec ID : S_TEXT/UTF8
Codec ID/Info : UTF-8 Plain Text
Duration : 58 min 41 s
Bit rate : 84 bps
Count of elements : 1095
Stream size : 36.3 KiB (0%)
Title : English
Language : English
Default : No
Forced : No

Text #2
ID : 4
Format : UTF-8
Codec ID : S_TEXT/UTF8
Codec ID/Info : UTF-8 Plain Text
Duration : 58 min 48 s
Bit rate : 87 bps
Count of elements : 1144
Stream size : 37.5 KiB (0%)
Title : English (SDH)
Language : English
Default : No
Forced : No


143251b1f91t4ewg6pq896.jpg.jpg
143252jnw3tbn9gr9zp3q3.jpg.jpg

143252w147blf7eeid11oz.jpg.jpg 143252ocf900ueycceevfp.jpg.jpg

143252w7ssszzgevsfowh7.jpg.jpg 143253peeg9r6he5zhn69s.jpg.jpg

143253u8xly333n7m3369w.jpg.jpg 143253hf2ofk7kzk6kkxsy.jpg.jpg

143254rdf0frx7v457v555.jpg.jpg 143254mj8oqdta57h18j3i.jpg.jpg

143254u35pnac95cdgdnx0.jpg.jpg 143254s7yk7nc0pjpnjccp.jpg.jpg

143255vmeiwdxmfdj4ejdj.jpg.jpg 143255d1jl4406tcc7pf04.jpg.jpg

143255odoqogqxt9qde9qu.jpg.jpg 143256y6ucgu1oyybpxhut.jpg.jpg

143256wocycb7ouy3oa3n2.jpg.jpg 143256senq5e2jygnn59h6.jpg.jpg



大世界之旅 第一季•第十一集 2017(高码率)[2160P/MKV/20.2GB]

The.Grand.Tour.S01E11.2160p.AMZN.WEBRip.DD5.1.x264-TrollUHD.torrent ( 51.14 KB )



登录 发布 快速回复 返回顶部 返回列表