开启辅助访问
 找回密码
 立即注册

自然纪录片:黄石国家公园的瀑布 2016 [2160P/TS/28.61GB]

#8K视频#时间:2023-05-23 阅读:241 回复:0
[4K(超高清)自然纪录片]黄石国家公园的瀑布 2016 [2160P/TS/28.61GB]+[1440P/MKV/8.96GB]


143941b7ppvw7paaxp82x7.jpg.jpg

黄石上下瀑布是由黄石河水侵蚀质地较软的岩石形成的。峡谷瀑布区在8字形公路,两个圆相接处的右端。黄石河,它由黄石峡谷汹涌而出,贯穿整个黄石国家公园。黄石河将山脉切穿而创造了神奇的黄石大峡谷。在阳光下,两峡壁的颜色从橙黄过渡到橘红,仿佛是两条曲折的彩带。黄石河流经黄色的峡谷,形成黄石瀑布壮丽的景观。

General
Unique ID : 180525562191746098437568368644424449463 (0x87CFF5667F703B20B746579C0957BDB7)
Complete name : WATERFALLS OF YELLOWSTONE - 4K Ultra HD _Мастер5.mkv
Format : Matroska
Format version : Version 4 / Version 2
File size : 8.96 GiB
Duration : 2 h 41 min
Overall bit rate : 7927 kbps
Movie name : WATERFALLS OF YELLOWSTONE - 4K Ultra HD _Мастер5
Encoded date : UTC 2017-05-06 17:27:46
Writing application : mkvmerge v8.1.0 ('Psychedelic Postcard') 32bit
Writing library : libebml v1.3.1 + libmatroska v1.4.2

Video
ID : 1
Format : AVC
Format/Info : Advanced Video Codec
Format profile : High@L5
Format settings, CABAC : Yes
Format settings, ReFrames : 3 frames
Codec ID : V_MPEG4/ISO/AVC
Duration : 2 h 41 min
Bit rate : 7799 kbps
Width : 2560 pixels
Height : 1440 pixels
Display aspect ratio : 16:9
Frame rate mode : Constant
Frame rate : 24.000 FPS
Color space : YUV
Chroma subsampling : 4:2:0
Bit depth : 8 bits
Scan type : Progressive
Bits/(Pixel*Frame) : 0.088
Stream size : 8.81 GiB (98%)
Title : WATERFALLS OF YELLOWSTONE - 4K Ultra HD _Мастер5
Default : Yes
Forced : No
Color range : Limited
Color primaries : BT.709
Transfer characteristics : BT.709
Matrix coefficients : BT.709

Audio
ID : 2
Format : AAC
Format/Info : Advanced Audio Codec
Format profile : LC
Codec ID : A_AAC
Duration : 2 h 41 min
Bit rate : 126 kbps
Channel(s) : 2 channels
Channel positions : Front: L R
Sampling rate : 44.1 kHz
Frame rate : 43.066 FPS (1024 spf)
Compression mode : Lossy
Stream size : 145 MiB (2%)
Default : Yes
Forced : No


143941pnzqm7nmrg9m8n6i.jpg.jpg 143941yh5qkzqn9yhz9fc4.jpg.jpg

143942fpqkdjj84p4kcavf.jpg.jpg 143942cddrwwrdqqigwwwi.jpg.jpg


[4K(超高清)自然纪录片]黄石国家公园的瀑布 2016 [2160P/TS/28.61GB]BT种子下载:


[www.1080pro.net]Waterfalls.of.Yellowstone.National.Park.2016.2160p.WEB-DL.AAC2..torrent ( 72.19 KB )



登录 发布 快速回复 返回顶部 返回列表