开启辅助访问
 找回密码
 立即注册

[4K真人秀]大世界之旅 第一季•第七集 2016(高码率)[2160P/MKV/14.14GB][BT]

#8K视频#时间:2023-05-23 阅读:243 回复:0
[4K真人秀]大世界之旅 第一季•第七集 2016(高码率)[2160P/MKV/14.14GB]

144109ca3gh7ar3rs3kor3.jpg.jpg

译  名:大世界之旅
片  名:The Grand Tour
年  代:2016
国  家:英国
类  别:真人秀 / 喜剧
语  言:英语
字       幕:英文
音       频:AC-3 5.1
视频尺寸:3840 x 2160
文件大小:14.14 GiB
IMDb评分:9.5/10 from 18.623 users
IMDb链接:http://www.imdb.com/title/tt5712554/
片  长:44.31 分钟
导  演:Phil Churchward 菲尔·查沃德
                  Brian Klein 布赖恩·克莱因
                  Kit Lynch Robinson 凯特·林奇·罗宾森
主  演:Jeremy Clarkson 杰里米·克拉克森
                  Richard Hammond 理查德·哈蒙德
                  James May 詹姆斯·梅
                  Mike Skinner 麦克·斯金纳

简  介:
Follow Jeremy, Richard, and James, as they embark on an adventure across the globe. Driving new and exciting automobiles


www.4kii.com
General
Complete name : The.Grand.Tour.S01E07.2160p.AMZN.WEBRip.DD5.1.x264-TrollUHD.mkv
Format : Matroska
Format version : Version 4 / Version 2
File size : 14.14 GiB
Duration : 44 min 31 s

Video
ID : 1
Format : AVC
Format/Info : Advanced Video Codec
Format profile : High@L5.1
Format settings, CABAC : Yes
Format settings, ReFrames : 5 frames
Codec ID : V_MPEG4/ISO/AVC
Duration : 44 min 31 s
Bit rate : 44.8 Mbps
Width : 3840 pixels
Height : 2160 pixels
Display aspect ratio : 16:9
Frame rate mode : Constant
Frame rate : 23.976 (24000/1001) fps
Color space : YUV
Chroma subsampling : 4:2:0
Bit depth : 8 bits
Scan type : Progressive
Bits/(Pixel*Frame) : 0.226
Stream size : 13.9 GiB (99%)
Writing library : x264 core 148 r2638 7599210
Encoding settings : cabac=1 / ref=5 / deblock=1:-3:-3 / analyse=0x3:0x133 / me=umh / subme=10 / psy=1 / psy_rd=1.00:0.00 / mixed_ref=1 / me_range=48 / chroma_me=1 / trellis=2 / 8x8dct=1 / cqm=0 / deadzone=21,11 / fast_pskip=1 / chroma_qp_offset=-2 / threads=48 / lookahead_threads=8 / sliced_threads=0 / nr=0 / decimate=0 / interlaced=0 / bluray_compat=0 / constrained_intra=0 / bframes=8 / b_pyramid=2 / b_adapt=2 / b_bias=0 / direct=3 / weightb=1 / open_gop=0 / weightp=2 / keyint=240 / keyint_min=23 / scenecut=40 / intra_refresh=0 / rc_lookahead=60 / rc=crf / mbtree=1 / crf=17.0 / qcomp=0.70 / qpmin=0 / qpmax=69 / qpstep=4 / vbv_maxrate=300000 / vbv_bufsize=300000 / crf_max=0.0 / nal_hrd=none / filler=0 / ip_ratio=1.40 / aq=1:0.70
Default : Yes
Forced : No

Audio
ID : 2
Format : E-AC-3
Format/Info : Audio Coding 3
Format settings, Endianness : Big
Codec ID : A_EAC3
Duration : 44 min 31 s
Bit rate mode : Constant
Bit rate : 640 Kbps
Channel(s) : 6 channels
Channel positions : Front: L C R, Side: L R, LFE
Sampling rate : 48.0 KHz
Frame rate : 187.500 fps (256 spf)
Compression mode : Lossy
Stream size : 204 MiB (1%)
Language : English
Default : Yes
Forced : No



144109wkpowdwdws6jp7rf.png.jpg 144109ylqiliiel3dge3lq.png.jpg

144109yrblqalbczwwcw0x.png.jpg 144110otoc99apevrpoao0.png.jpg

144110tz5bll8tkzq1wpzt.png.jpg 144110dmkupulktczvivtt.png.jpg


[4K真人秀]大世界之旅 第一季•第七集 2016(高码率)[2160P/MKV/14.14GB]BT种子文件下载:


The.Grand.Tour.S01E07.2160p.AMZN.WEBRip.DD5.1.x264-TrollUHDHao4k.torrent ( 71.38 KB )



登录 发布 快速回复 返回顶部 返回列表