开启辅助访问
 找回密码
 立即注册

[4K超超高清纪录片]曝光2 Exposure Vol.2 (HEVC 50fps 10bit)[2160P/MKV/9.2GB/种子]

#8K视频#时间:2023-05-23 阅读:178 回复:0
[4K超超超高清纪录片]曝光 2 Exposure Vol.2 (HEVC 50fps 10bit)[2160P/MKV/9.2GB]  (俄语旁述)   

145726b2fqauugqbrfa219.jpg.jpg

General
Unique ID : 232432532581178571682038994096700189781(0xAEDCE0A0E076DA89A9D595819B6EEC55)
Complete name : Exposure.Vol.2.Insight.UHD.UHDTV4k.2160p.HEVC.Russian-CasStudio.mkv
Format version : Version 4 / Version 2
File size : 9.20 GiB
Duration : 1h 21mn
Overall bit rate : 16.2 Mbps
Encoded date : UTC 2015-12-16 20:33:08
Writing application : mkvmerge v8.6.1 ('Flying') 64bit
Writing library : libebml v1.3.3 + libmatroska v1.4.4

Video
ID : 1
Format : HEVC
Format/Info : High Efficiency Video Coding
Format profile : Main 10@L5.1@Main
Codec ID : V_MPEGH/ISO/HEVC
Duration : 1h 21mn
Bit rate : 16.0 Mbps
Width : 3840 pixels
Height : 2160 pixels
Display aspect ratio : 16:9
Frame rate mode : Constant
Frame rate : 50.000 fps
Color space : YUV
Chroma subsampling : 4:2:0
Bit depth : 10 bits
Bits/(Pixel*Frame) : 0.039
Stream size : 9.09 GiB (99%)
Language : English
Default : Yes
Forced : No

Audio
ID : 2
Format : MPEG Audio
Format version : Version 1
Format profile : Layer 2
Codec ID : A_MPEG/L2
Codec ID/Hint : MP2
Duration : 1h 21mn
Bit rate mode : Constant  
Bit rate : 192 Kbps  
Channel(s) : 2 channels
Sampling rate : 48.0 KHz
Frame rate : 41.667 fps (1152 spf)
Compression mode : Lossy
Delay relative to video : 164ms
Stream size : 112 MiB (1%)
Language : Russian
Default : Yes
Forced : No


145726vmvwer8qv8zwk7eo.jpg.jpg 145726z6uxvv2x55rc0su0.jpg.jpg

145726dzbx6j11jq0rj2or.jpg.jpg 145726itzx0a0prop0rl6n.jpg.jpg

145727rpgy2uu9pgg51ee2.jpg.jpg 145727spri766dc9xkrz2n.jpg.jpg

145727l1m0mw03qqrmfuj8.jpg.jpg 145727woopueh1ksskelss.jpg.jpg

145727i59z3y5doo5a2aks.jpg.jpg 145727w00nnblpnbvbp05z.jpg.jpg

145728qba082kb2bfk1ibr.jpg.jpg 145728phaaiq0aop64a0za.jpg.jpg


[4K超超高清纪录片]曝光2 Exposure Vol.2 (HEVC 50fps 10bit)[2160P/MKV/9.2GB/种子]


[4K超高清纪录片]曝光 2 Exposure Vol.2 HEVC 50fps 10bit.torrent ( 46.59 KB )



登录 发布 快速回复 返回顶部 返回列表